Гарем / L'harem (Марко Феррери / Marco Ferreri) [1967, Италия, Франция, Трагикомедия, DVDRip] DVO (телекомпания «Твин») + Original Ita


Статистика раздачи [Обновить пиров]
Размер:  1.46 GB   |    Зарегистрирован:  1 год 1 месяц   |    Скачан:  0 раз

Полного источника не было: Никогда

 
   
 
 
 

[Цитировать]

Гарем / L'harem Страна: Италия , Франция
Жанр: Трагикомедия
Год выпуска: 1967
Продолжительность: 01:32:54
Перевод: Профессиональный (двухголосый закадровый) - телекомпания «Твин»
Cубтитры: нет
Оригинальная аудиодорожка: итальянская
Режиссер: Марко Феррери / Marco Ferreri
В ролях: Кэррол Бейкер, Гастоне Москин, Ренато Сальватори, Мишель Ле Ройер, Вильям Бергер, Клотильда Сакарофф, Джордж Хилтон, Джон Филлип Ло, Уго Тоньяцци.
Описание: Маргарита любит четырех мужчин одновременно, но никому из них не может отдать предпочтения. Она отказывается выйти замуж за одного, так как не хочет лишиться других. Она приглашает их всех, таких разных, на чудесную виллу в сказочно красивом месте у моря, где и организуется своеобразный гарем. Сможет ли госпожа дать счастье всем своим наложникам, и как сами мужчины отнесутся к этой затее?


Качество видео: DVDRip
Формат видео: AVI
Видео: 720x320 (2.25:1), 25 fps, XviD build 50 ~1906 kbps avg, 0.33 bit/pixel
Аудио 1: 44.100 kHz, MPEG Layer 3, 1 ch, ~128.00 kbps avg - Rus
Аудио 2: 48 kHz, AC3 Dolby Digital, 2/0 (L,R) ch, ~192 kbps - Ita

MediaInfo

General
Complete name : D:\Public\L'Harem.1967.DVDRip.Rus.Ita.avi
Format : AVI
Format/Info : Audio Video Interleave
File size : 1.46 GiB
Duration : 1h 32mn
Overall bit rate : 2 242 Kbps
Writing application : VirtualDubMod 1.5.10.2 (build 2542/release)
Writing library : VirtualDubMod build 2542/release
Video
ID : 0
Format : MPEG-4 Visual
Format profile : Advanced Simple@L5
Format settings, BVOP : 1
Format settings, QPel : No
Format settings, GMC : No warppoints
Format settings, Matrix : Default (MPEG)
Codec ID : XVID
Codec ID/Hint : XviD
Duration : 1h 32mn
Bit rate : 1 908 Kbps
Width : 720 pixels
Height : 320 pixels
Display aspect ratio : 2.25:1
Frame rate : 25.000 fps
Color space : YUV
Chroma subsampling : 4:2:0
Bit depth : 8 bits
Scan type : Progressive
Compression mode : Lossy
Bits/(Pixel*Frame) : 0.331
Stream size : 1.24 GiB (85%)
Writing library : XviD 1.2.1 (UTC 2008-12-04)
Audio #1
ID : 1
Format : MPEG Audio
Format version : Version 1
Format profile : Layer 3
Codec ID : 55
Codec ID/Hint : MP3
Duration : 1h 32mn
Bit rate mode : Constant
Bit rate : 128 Kbps
Channel(s) : 1 channel
Sampling rate : 44.1 KHz
Compression mode : Lossy
Stream size : 85.1 MiB (6%)
Alignment : Split accross interleaves
Interleave, duration : 40 ms (1.00 video frame)
Interleave, preload duration : 500 ms
Title : Rus
Writing library : LAME3.98r
Encoding settings : -m m -V 4 -q 3 -lowpass 20.5 -b 128
Audio #2
ID : 2
Format : AC-3
Format/Info : Audio Coding 3
Mode extension : CM (complete main)
Codec ID : 2000
Duration : 1h 32mn
Bit rate mode : Constant
Bit rate : 192 Kbps
Channel(s) : 2 channels
Channel positions : Front: L R
Sampling rate : 48.0 KHz
Bit depth : 16 bits
Compression mode : Lossy
Stream size : 128 MiB (9%)
Alignment : Split accross interleaves
Interleave, duration : 40 ms (1.00 video frame)
Interleave, preload duration : 500 ms
Title : Ita

Скриншот c названием фильма

Скриншоты

[teatrix.ru].t5820.torrent 
Торрент: Зарегистрирован [ 2015-10-10 00:35 ] · 1A708F0498E2989D64C938F490947CDD4410D7EC

Скачать .torrent

Скачать

15 KB

Статус: проверено
Скачан: 0 раз
Размер: 1.46 GB
terms.php



Быстрый ответ

Имя:

      
Для отправки сообщений необходимо включить JavaScript
Показать сообщения:    

Текущее время: 04-Дек 04:54

Часовой пояс: UTC + 3


Вы можете начинать темы
Вы можете отвечать на сообщения
Вы не можете редактировать свои сообщения
Вы не можете удалять свои сообщения
Вы не можете голосовать в опросах
Вы не можете прикреплять файлы к сообщениям
Вы можете скачивать файлы