Магия лунного света / Magic in the Moonlight (Вуди Аллен / Woody Allen) [2014, США, мелодрама, комедия, BDRip-AVC] Dub (Лицензия) + Sub Rus, Eng + Original Eng


 

[Цитировать]

Магия лунного светаMagic in the Moonlight

-
Страна: США
Жанр: мелодрама, комедия
Год выпуска: 2014
Продолжительность: 01:37:37-Перевод: Профессиональный (полное дублирование) Лицензия
Оригинальная дорожка: Английский
Субтитры: русские, английские
Режиссер: Вуди Аллен / Woody Allen
В ролях:
Колин Фёрт (Stanley), Эмма Стоун (Sophie), Саймон МакБерни (Howard Burkan), Антония Кларк (Wei Ling Soo's Assistant), Наташа Эндрюс (Wei Ling Soo's Assistant), Валери Больё (Wei Ling Soo's Assistant), Питер Уоллаш (Stage Manager), Юрген Цвингель (Backstage Fan), Вольфганг Писсорс (Backstage Fan), Себастьен Сиро (Backstage Fan), Уте Лемпер (Cabaret Singer), Катрин МакКормак (Olivia)-Описание: 1928 год. Выдающийся иллюзионист по просьбе своего друга и коллеги приезжает на Лазурный Берег разоблачить молодую привлекательную шарлатанку, якобы умеющую вызывать духов умерших. Она очаровала богатого наследника и его мать-вдову, а это не устраивает других членов семьи.-
MPAA: : PG-13 - Детям до 13 лет просмотр не желателен
-Источник: BD-Remux HDCLUB*
Качество: BDRip-AVC | Сэмпл
Контейнер: MKV
Видео: AVC x264, 1046x438 (2.388), 23.976 fps, 2 297 Kbps, 0.209 bit/pixel
Аудио №1: русский, AC3, 5.1, 48 kHz, 448 kbps, 16 bit
Аудио №2: английский, AC3, 5.1, 48 kHz, 448 kbps, 16 bit
Формат субтитров: softsub (SRT)-

x264 / MediaInfo

x264 [info]: frame I:841   Avg QP:16.17  size: 91130
x264 [info]: frame P:27663 Avg QP:18.22  size: 27852
x264 [info]: frame B:111944 Avg QP:20.20  size:  7460
General
Unique ID : 253795241122456894578691387227632484557 (0xBEEF2F7A713D40CAAD41B05633CEC0CD)
Complete name : E:\Magic.in.the.Moonlight.2014.Woody.Allen.bdrip-avc.mkv
Format : Matroska
Format version : Version 4 / Version 2
File size : 2.18 GiB
Duration : 1h 37mn
Overall bit rate : 3 195 Kbps
Movie name : Магия лунного света / Magic in the Moonlight (2014) egiko'z bdrip // magic
Encoded date : UTC 2015-05-25 20:11:08
Writing application : mkvmerge v7.9.0 ('Birds') 64bit
Writing library : libebml v1.3.1 + libmatroska v1.4.2
Attachements : cover.jpg
DIRECTOR : Woody Allen
DATE_RELEASED : 2014
DURATION : 01:37:17.408000000
NUMBER_OF_FRAMES : 182419
NUMBER_OF_BYTES : 326894848
_STATISTICS_WRITING_APP : mkvmerge v7.9.0 ('Birds') 64bit
_STATISTICS_WRITING_DATE_UTC : 2015-05-25 20:11:08
_STATISTICS_TAGS : BPS DURATION NUMBER_OF_FRAMES NUMBER_OF_BYTES
Video
ID : 1
Format : AVC
Format/Info : Advanced Video Codec
Format profile : High@L4.0
Format settings, CABAC : Yes
Format settings, ReFrames : 12 frames
Codec ID : V_MPEG4/ISO/AVC
Duration : 1h 37mn
Bit rate : 2 297 Kbps
Width : 1 046 pixels
Height : 438 pixels
Display aspect ratio : 2.40:1
Frame rate mode : Constant
Frame rate : 23.976 fps
Color space : YUV
Chroma subsampling : 4:2:0
Bit depth : 8 bits
Scan type : Progressive
Bits/(Pixel*Frame) : 0.209
Stream size : 1.52 GiB (70%)
Title : Magic in the Moonlight
Writing library : x264 core 146 r2538kMod 121396c
Encoding settings : cabac=1 / ref=12 / deblock=1:-1:-1 / analyse=0x3:0x113 / me=umh / subme=10 / psy=1 / fade_compensate=0.00 / psy_rd=1.00:0.00 / mixed_ref=1 / me_range=32 / chroma_me=1 / trellis=2 / 8x8dct=1 / cqm=0 / deadzone=21,11 / fast_pskip=0 / chroma_qp_offset=-2 / threads=6 / lookahead_threads=1 / sliced_threads=0 / nr=0 / decimate=1 / interlaced=0 / bluray_compat=0 / constrained_intra=0 / fgo=0 / bframes=12 / b_pyramid=2 / b_adapt=2 / b_bias=0 / direct=3 / weightb=1 / open_gop=0 / weightp=2 / keyint=240 / keyint_min=23 / scenecut=40 / intra_refresh=0 / rc_lookahead=60 / rc=2pass / mbtree=0 / bitrate=2297 / ratetol=1.0 / qcomp=0.60 / qpmin=0 / qpmax=69 / qpstep=4 / cplxblur=20.0 / qblur=0.5 / vbv_maxrate=17500 / vbv_bufsize=17500 / nal_hrd=none / filler=0 / ip_ratio=1.40 / pb_ratio=1.30 / aq=2:0.60 / zones=135357,140447,q=40
Language : English
Default : Yes
Forced : No
DURATION : 01:37:37.852000000
NUMBER_OF_FRAMES : 140448
NUMBER_OF_BYTES : 1682184609
_STATISTICS_WRITING_APP : mkvmerge v7.9.0 ('Birds') 64bit
_STATISTICS_WRITING_DATE_UTC : 2015-05-25 20:11:08
_STATISTICS_TAGS : BPS DURATION NUMBER_OF_FRAMES NUMBER_OF_BYTES
Audio #1
ID : 2
Format : AC-3
Format/Info : Audio Coding 3
Mode extension : CM (complete main)
Format settings, Endianness : Big
Codec ID : A_AC3
Duration : 1h 37mn
Bit rate mode : Constant
Bit rate : 448 Kbps
Channel(s) : 6 channels
Channel positions : Front: L C R, Side: L R, LFE
Sampling rate : 48.0 KHz
Bit depth : 16 bits
Compression mode : Lossy
Delay relative to video : 10s 450ms
Stream size : 313 MiB (14%)
Default : Yes
Forced : No
Audio #2
ID : 3
Format : AC-3
Format/Info : Audio Coding 3
Mode extension : CM (complete main)
Format settings, Endianness : Big
Codec ID : A_AC3
Duration : 1h 37mn
Bit rate mode : Constant
Bit rate : 448 Kbps
Channel(s) : 6 channels
Channel positions : Front: L C R, Side: L R, LFE
Sampling rate : 48.0 KHz
Bit depth : 16 bits
Compression mode : Lossy
Stream size : 313 MiB (14%)
Title : Оригинал
Language : English
Default : No
Forced : No
Text #1
ID : 4
Format : UTF-8
Codec ID : S_TEXT/UTF8
Codec ID/Info : UTF-8 Plain Text
Language : Russian
Default : No
Forced : No
Text #2
ID : 5
Format : UTF-8
Codec ID : S_TEXT/UTF8
Codec ID/Info : UTF-8 Plain Text
Language : English
Default : No
Forced : No

*

Видео и оригинальная дорога идентичны релизу BD-REMUX от HDCLUB. Зарубежное издание.
Русская лицензия.

Сравнение BD изданий

Зарубежное - Русское





Показать сообщения:    

Текущее время: 11-Дек 01:25

Часовой пояс: UTC + 3


Вы не можете начинать темы
Вы не можете отвечать на сообщения
Вы не можете редактировать свои сообщения
Вы не можете удалять свои сообщения
Вы не можете голосовать в опросах
Вы не можете прикреплять файлы к сообщениям
Вы не можете скачивать файлы