Зимняя спячка / Kis uykusu / Winter Sleep (Нури Бильге Джейлан / Nuri Bilge Ceylan) [2014, Турция, Франция, Германия, драма, BDRip-AVC] AVO (Ю. Сербин) + Sub Eng + Original Tur


 

[Цитировать]

Зимняя спячка
Kis uykusu / Winter Sleep

Страна: Турция, Франция, Германия
Жанр: драма
Год выпуска: 2014
Продолжительность: 03:16:45
Перевод: Авторский (одноголосый закадровый) Ю. Сербин
Cубтитры: английские
Оригинальная аудиодорожка: турецкий
Режиссер: Нури Бильге Джейлан / Nuri Bilge Ceylan
В ролях: Халук Бильгинер, Мелиса Сёзен, Демет Акбаг, Айберк Пекджан, Серхат Кылыч, Неджат Ишлер, Тэмер Левент, Надир Сарыбаджак, Эмирхан Доруктутан, Экрем Ильхан
Описание: Отель «Отелло» в Анатолии. Им управляет импозантный седовласый Айдин, бывший театральный актер, чья слава давно прошла. Вместе с ним живут красавица-жена, занимающаяся благотворительностью, и сестра, тоскующая по мужу, с которым не так давно развелась. Небывалый снегопад отрезает отель от цивилизации, и он становится убежищем для этих трех человек и декорацией, в которой разыгрываются сцены их мучений.

Сэмпл: скачать
Качество видео: BDRip-AVC [Зимняя спячка / Kis uykusu / Winter Sleep (2014) Blu-ray [Custom] 1080p AVC DTS-HD 5.1]
Формат видео: MKV
Видео: AVC, 1136 x 476 (2,40:1), 2339 kbps, 23,976 fps, 0,180 bpp
Аудио: AC3, 6ch, 48 kHz, 448 kbps, 16 bit
Аудио 2: AC3, 6ch, 48 kHz, 384 kbps, 16 bit
Формат субтитров: softsub (SRT)

MediaInfo

Уникальный идентификатор : 239493437488014322105986189585548341548 (0xB42CC21E42B5EDB286DAC4EFF310712C)
Полное имя : F:\Films\Winter\Winter.mkv
Формат : Matroska
Версия формата : Version 4 / Version 2
Размер файла : 4,36 Гбайт
Продолжительность : 3 ч. 16 м.
Общий поток : 3172 Кбит/сек
Дата кодирования : UTC 2015-05-25 03:51:46
Программа кодирования : mkvmerge v7.7.0 ('Six Voices') 64bit built on Feb 28 2015 23:39:33
Библиотека кодирования : libebml v1.3.1 + libmatroska v1.4.2
_STATISTICS_WRITING_APP : mkvmerge v7.7.0 ('Six Voices') 64bit built on Feb 28 2015 23:39:33
_STATISTICS_WRITING_DATE_UTC : 2015-05-25 03:51:46
_STATISTICS_TAGS : BPS DURATION NUMBER_OF_FRAMES NUMBER_OF_BYTES
DURATION : 03:11:44.546000000
NUMBER_OF_FRAMES : 2632
NUMBER_OF_BYTES : 85747
Видео
Идентификатор : 1
Формат : AVC
Формат/Информация : Advanced Video Codec
Профиль формата : High@L4.1
Параметр CABAC формата : Да
Параметр ReFrames формата : 8 кадров
Идентификатор кодека : V_MPEG4/ISO/AVC
Продолжительность : 3 ч. 16 м.
Битрейт : 2339 Кбит/сек
Ширина : 1136 пикселей
Высота : 476 пикселей
Соотношение сторон : 2,40:1
Соотношение сторон в оригинале : 2,40:1
Режим частоты кадров : Постоянный
Частота кадров : 23,976 кадра/сек
Цветовое пространство : YUV
Субдискретизация насыщенности : 4:2:0
Битовая глубина : 8 бит
Тип развёртки : Прогрессивная
Бит/(Пиксели*Кадры) : 0.180
Размер потока : 3,13 Гбайт (72%)
Библиотека кодирования : x264 core 142 r2431 ac76440
Настройки программы : cabac=1 / ref=8 / deblock=1:-2:-1 / analyse=0x3:0x133 / me=umh / subme=9 / psy=1 / psy_rd=1.00:0.05 / mixed_ref=0 / me_range=36 / chroma_me=1 / trellis=2 / 8x8dct=1 / cqm=0 / deadzone=21,11 / fast_pskip=0 / chroma_qp_offset=-3 / threads=4 / lookahead_threads=1 / sliced_threads=0 / nr=0 / decimate=0 / interlaced=0 / bluray_compat=0 / constrained_intra=0 / bframes=12 / b_pyramid=2 / b_adapt=2 / b_bias=0 / direct=1 / weightb=1 / open_gop=0 / weightp=2 / keyint=240 / keyint_min=23 / scenecut=40 / intra_refresh=0 / rc=2pass / mbtree=0 / bitrate=2339 / ratetol=1.0 / qcomp=0.60 / qpmin=10 / qpmax=69 / qpstep=4 / cplxblur=20.0 / qblur=0.5 / ip_ratio=1.40 / pb_ratio=1.30 / aq=1:1.00
Default : Да
Forced : Нет
Аудио #1
Идентификатор : 2
Формат : AC-3
Формат/Информация : Audio Coding 3
Расширение режима : CM (complete main)
Параметр Endianness формата : Big
Идентификатор кодека : A_AC3
Продолжительность : 3 ч. 16 м.
Вид битрейта : Постоянный
Битрейт : 448 Кбит/сек
Каналы : 6 каналов
Расположение каналов : Front: L C R, Side: L R, LFE
Частота : 48,0 КГц
Битовая глубина : 16 бит
Метод сжатия : С потерями
Размер потока : 630 Мбайт (14%)
Заголовок : Русский, одноголосый, Ю. Сербин
Язык : Russian
Default : Да
Forced : Нет
Аудио #2
Идентификатор : 3
Формат : AC-3
Формат/Информация : Audio Coding 3
Расширение режима : CM (complete main)
Параметр Endianness формата : Big
Идентификатор кодека : A_AC3
Продолжительность : 3 ч. 16 м.
Вид битрейта : Постоянный
Битрейт : 384 Кбит/сек
Каналы : 6 каналов
Расположение каналов : Front: L C R, Side: L R, LFE
Частота : 48,0 КГц
Битовая глубина : 16 бит
Метод сжатия : С потерями
Размер потока : 540 Мбайт (12%)
Заголовок : Турецкий
Язык : Turkish
Default : Нет
Forced : Нет
Текст
Идентификатор : 4
Формат : UTF-8
Идентификатор кодека : S_TEXT/UTF8
Идентификатор кодека/Информация : UTF-8 Plain Text
Заголовок : Английские
Язык : English
Default : Нет
Forced : Нет
Меню
00:00:00.000 : en:00:00:00.000
00:21:21.113 : en:00:21:21.113
00:39:17.063 : en:00:39:17.063
01:02:14.646 : en:01:02:14.646
01:19:14.582 : en:01:19:14.582
01:38:52.509 : en:01:38:52.509
01:49:24.765 : en:01:49:24.765
02:20:02.852 : en:02:20:02.852
02:36:43.018 : en:02:36:43.018
02:54:34.297 : en:02:54:34.297
03:06:47.279 : en:03:06:47.279

Скриншот c названием фильма

Скриншоты


Награды

Сезар, 2015 год
Номинации (1):Лучший фильм на иностранном языке
Каннский кинофестиваль, 2014 год
Победитель (2): Золотая пальмовая ветвь, Приз ФИПРЕССИ (конкурсная программа)

Европейская киноакадемия, 2014 год
Номинации (3): Лучший фильм, Лучший режиссер (Нури Бильге Джейлан), Лучшая работа сценариста (Нури Бильге Джейлан, Эбру Джейлан)

Возраст

16+ зрителям, достигшим 16 лет



Показать сообщения:    

Текущее время: 04-Дек 09:02

Часовой пояс: UTC + 3


Вы не можете начинать темы
Вы не можете отвечать на сообщения
Вы не можете редактировать свои сообщения
Вы не можете удалять свои сообщения
Вы не можете голосовать в опросах
Вы не можете прикреплять файлы к сообщениям
Вы не можете скачивать файлы