Бумажный голубь / Paloma de papel / Paper Dove (Фабрисио Агилар / Fabrizio Aguilar) [2003, Перу, драма, DVDRip] VO + Sub Rus + Original Spa


Статистика раздачи [Обновить пиров]
Размер:  793 MB   |    Зарегистрирован:  1 год 1 месяц   |    Скачан:  0 раз

Полного источника не было: Никогда

 
   
 
 
 

[Цитировать]

Бумажный голубь / Paloma de papel / Paper Dove
Страна: Перу
Жанр: Драма
Год выпуска: 2003
Продолжительность: 01:28:19
Перевод: Одноголосый закадровый
Cубтитры: русские
Оригинальная аудиодорожка: испанский
Режиссер: Фабрисио Агиляр / Fabrizio Aguilar
В ролях: Антонио Калиргос, Анна Падилья, Татьяна Астенго, Серхио Гальяни
Описание: Глухая провинция в Перу, горная индейская деревня. И все это на фоне гражданской войны, в ходе которой погибло около 30 000 человек. Войны между правительственными войсками и, как в 80-е годы писала советская пресса, национально-освободительным движением во главе с коммунистической партией. Убийства, террор, похищение детей, чтобы превратить их в боевиков с одной стороны, а с другой - карательные акции правительственных войск против боевиков (террорюг, так их называли в Перу) от которых также страдали мирные жители, которых правительственные войска подозревали в сотрудничестве с боевиками.
В такой атмосфере и приходилось существовать жителям маленького горного селения.
Это фон, на котором происходят события фильма - истории мальчика, которого похищают террористы, для того, чтобы он стал одним из них.
Сэмпл: http://multi-up.com/1050220
Качество видео: DVDRip
Формат видео: AVI
Видео: 608x336 (1.81:1), 23.976 fps, XviD Final 1.1 (build 41) ~857 kbps avg, 0.17 bit/pixel
Аудио 1: AC3 Dolby Digital, 2/0 (L,R) ch, ~192.00 kbps avg(Русский)
Аудио 2: AC3 Dolby Digital, 2/0 (L,R) ch, ~192.00 kbps avg(Испанский)
Формат субтитров: softsub (SRT)
Доп. информация о субтитрах: Русские внешние

MediaInfo

Общее
Полное имя : F:\С моей озвучкой\Бумажный голубь\Paloma de papel.avi
Формат : AVI
Формат/Информация : Audio Video Interleave
Размер файла : 793 Мбайт
Продолжительность : 1 ч. 28 м.
Общий поток : 1256 Кбит/сек
Программа кодирования : VirtualDubModRus 1.5.10.2 (build 2542/release)
Библиотека кодирования : VirtualDubMod build 2542/release
Видео
Идентификатор : 0
Формат : MPEG-4 Visual
Профиль формата : Advanced Simple@L5
Параметр BVOP формата : 1
Параметр QPel формата : Нет
Параметр GMC формата : Без точки перехода
Параметр матрицы формата : Выборочная
Идентификатор кодека : XVID
Идентификатор кодека/Подсказка : XviD
Продолжительность : 1 ч. 28 м.
Битрейт : 858 Кбит/сек
Ширина : 608 пикселей
Высота : 336 пикселей
Соотношение сторон : 16:9
Частота кадров : 23,976 кадра/сек
Цветовое пространство : YUV
Субдискретизация насыщенности : 4:2:0
Битовая глубина : 8 бит
Тип развёртки : Прогрессивная
Метод сжатия : С потерями
Бит/(Пиксели*Кадры) : 0.175
Размер потока : 542 Мбайт (68%)
Библиотека кодирования : XviD 1.1.0 (UTC 2005-11-22)
Аудио #1
Идентификатор : 1
Формат : AC-3
Формат/Информация : Audio Coding 3
Расширение режима : CM (complete main)
Параметр Endianness формата : Big
Идентификатор кодека : 2000
Продолжительность : 1 ч. 28 м.
Вид битрейта : Постоянный
Битрейт : 192 Кбит/сек
Каналы : 2 канала
Расположение каналов : Front: L R
Частота : 48,0 КГц
Битовая глубина : 16 бит
Метод сжатия : С потерями
Размер потока : 121 Мбайт (15%)
Выравнивание : Разделение по промежуткам
Продолжительность промежутка : 42 мс. (1,00 видеокадр)
Время предзагрузки промежутка : 500 мс.
Аудио #2
Идентификатор : 2
Формат : AC-3
Формат/Информация : Audio Coding 3
Расширение режима : CM (complete main)
Параметр Endianness формата : Big
Идентификатор кодека : 2000
Продолжительность : 1 ч. 28 м.
Вид битрейта : Постоянный
Битрейт : 192 Кбит/сек
Каналы : 2 канала
Расположение каналов : Front: L R
Частота : 48,0 КГц
Битовая глубина : 16 бит
Метод сжатия : С потерями
Размер потока : 121 Мбайт (15%)
Выравнивание : Разделение по промежуткам
Продолжительность промежутка : 42 мс. (1,00 видеокадр)
Время предзагрузки промежутка : 500 мс.

Скриншоты

[teatrix.ru].t5825.torrent 
Торрент: Зарегистрирован [ 2015-10-10 00:35 ] · 8A17D6E899925F6DF445D224BB7F3EE0D183FC9F

Скачать .torrent

Скачать

16 KB

Статус: проверено
Скачан: 0 раз
Размер: 793 MB
terms.php



Быстрый ответ

Имя:

      
Для отправки сообщений необходимо включить JavaScript
Показать сообщения:    

Текущее время: 08-Дек 19:04

Часовой пояс: UTC + 3


Вы можете начинать темы
Вы можете отвечать на сообщения
Вы не можете редактировать свои сообщения
Вы не можете удалять свои сообщения
Вы не можете голосовать в опросах
Вы не можете прикреплять файлы к сообщениям
Вы можете скачивать файлы