Кочочи / Cochochi (Исраэль Карденас, Лаура Амелия Гузман / Israel Cárdenas, Laura Amelia Guzmán) [2007, Мексика, драма, DVDRip] VO + Sub Rus + Original Spa


Статистика раздачи [Обновить пиров]
Размер:  1.62 GB   |    Зарегистрирован:  1 год 1 месяц   |    Скачан:  1 раз

Полного источника не было: 3 месяца 1 день

 
   
 
 
 

[Цитировать]

Кочочи / Cochochi
Страна: Мексика
Жанр: драма
Год выпуска: 2007
Продолжительность: 01:27:00
Перевод: Одноголосый закадровый
Cубтитры: русские
Оригинальная аудиодорожка: тараумара, испанский
Режиссер: Исраэль Карденас, Лаура Амелия Гузман / Israel Cárdenas, Laura Amelia Guzmán
В ролях: Луис Антонио Лерма Торрес, Эваристо Корпус Лерма Торрес, Gilberto Villalobos, Crystobal Nevares, Josefina Villalobos, Maria Rosa Ramirez Mendoza
Описание: Неспешно течёт жизнь в маленькой индейской горной общине. Сегодня редкий праздник - выпускной в деревенской школе. Бывшие шестиклассники теперь получают настоящие дипломы и официально становятся взрослыми.
Вот только для двух братьев первое же "взрослое" задание оборачивается трудным путешествием с множеством приключений и проблем.
Сэмпл: http://multi-up.com/1049867
Качество видео: DVDRip
Формат видео: AVI
Видео: 720x384 (1.88:1), 23.976 fps, XviD build 50 ~2388 kbps avg, 0.36 bit/pixel
Аудио 1: 48 kHz, , 2 ch, ~128.00 kbps avg(Русский)
Аудио 2: 48 kHz, , 2 ch, ~128.00 kbps avg(Испанский)
Формат субтитров: softsub (SRT)
Доп. информация о субтитрах: Русские внешние (HJdsaksjdklklnjkhbdsfsl)

MediaInfo

Общее
Полное имя : F:\С моей озвучкой\Кочочи\Cochochi.avi
Формат : AVI
Формат/Информация : Audio Video Interleave
Размер файла : 1,62 Гбайт
Продолжительность : 1 ч. 27 м.
Общий поток : 2660 Кбит/сек
Программа кодирования : VirtualDubModRus 1.5.10.2 (build 2542/release)
Библиотека кодирования : VirtualDubMod build 2542/release
Видео
Идентификатор : 0
Формат : MPEG-4 Visual
Профиль формата : Advanced Simple@L5
Параметр BVOP формата : 2
Параметр QPel формата : Нет
Параметр GMC формата : Без точки перехода
Параметр матрицы формата : Default (H.263)
Идентификатор кодека : XVID
Идентификатор кодека/Подсказка : XviD
Продолжительность : 1 ч. 27 м.
Битрейт : 2390 Кбит/сек
Ширина : 720 пикселей
Высота : 384 пикселя
Соотношение сторон : 1,85:1
Частота кадров : 23,976 кадра/сек
Цветовое пространство : YUV
Субдискретизация насыщенности : 4:2:0
Битовая глубина : 8 бит
Тип развёртки : Прогрессивная
Метод сжатия : С потерями
Бит/(Пиксели*Кадры) : 0.361
Размер потока : 1,46 Гбайт (90%)
Библиотека кодирования : XviD 1.2.1 (UTC 2008-12-04)
Аудио #1
Идентификатор : 1
Формат : MPEG Audio
Версия формата : Version 1
Профиль формата : Layer 3
Режим : Joint stereo
Расширение режима : MS Stereo
Идентификатор кодека : 55
Идентификатор кодека/Подсказка : MP3
Продолжительность : 1 ч. 27 м.
Вид битрейта : Постоянный
Битрейт : 128 Кбит/сек
Каналы : 2 канала
Частота : 48,0 КГц
Метод сжатия : С потерями
Размер потока : 79,8 Мбайт (5%)
Выравнивание : Соединение по промежуткам
Продолжительность промежутка : 42 мс. (1,00 видеокадр)
Время предзагрузки промежутка : 504 мс.
Библиотека кодирования : LAME3.96
Аудио #2
Идентификатор : 2
Формат : MPEG Audio
Версия формата : Version 1
Профиль формата : Layer 3
Режим : Joint stereo
Расширение режима : MS Stereo
Идентификатор кодека : 55
Идентификатор кодека/Подсказка : MP3
Продолжительность : 1 ч. 27 м.
Вид битрейта : Постоянный
Битрейт : 128 Кбит/сек
Каналы : 2 канала
Частота : 48,0 КГц
Метод сжатия : С потерями
Размер потока : 79,8 Мбайт (5%)
Выравнивание : Соединение по промежуткам
Продолжительность промежутка : 42 мс. (1,00 видеокадр)
Время предзагрузки промежутка : 504 мс.
Библиотека кодирования : LAME3.98r
Настройки программы : -m j -V 4 -q 2 -lowpass 17 -b 128

Скриншоты

[teatrix.ru].t5827.torrent 
Торрент: Зарегистрирован [ 2015-10-10 00:35 ] · 912A2DC242D9FA08C9EB225CE101223F60105711

Скачать .torrent

Скачать

17 KB

Статус: проверено
Скачан: 1 раз
Размер: 1.62 GB
terms.php



Быстрый ответ

Имя:

      
Для отправки сообщений необходимо включить JavaScript
Показать сообщения:    

Текущее время: 07-Дек 19:22

Часовой пояс: UTC + 3


Вы можете начинать темы
Вы можете отвечать на сообщения
Вы не можете редактировать свои сообщения
Вы не можете удалять свои сообщения
Вы не можете голосовать в опросах
Вы не можете прикреплять файлы к сообщениям
Вы можете скачивать файлы