Зимняя спячка / Winter Sleep / Kış Uykusu / Kıs Uykusu (Нури Бильге Джейлан / Nuri Bilge Ceylan) [2014, Турция, Франция, Германия, драма, HDRip] MVO (Кинопоказ) + Original Tur


 

[Цитировать]

Зимняя спячка / Winter Sleep / Kış Uykusu / Kıs Uykusu
Страна: Турция, Франция, Германия
Жанр: драма
Год выпуска: 2014
Продолжительность: 03:16:45
Перевод: Профессиональный (многоголосый закадровый) Кинопоказ
Cубтитры: нет
Оригинальная аудиодорожка: турецкий
Режиссер: Нури Бильге Джейлан / Nuri Bilge Ceylan
В ролях: Халук Бильгинер, Мелиса Сёзен, Демет Акбаг, Айберк Пекджан, Серхат Кылыч, Неджат Ишлер, Тэмер Левент, Надир Сарыбаджак, Эмирхан Доруктутан, Экрем Ильхан
Описание: Отель «Отелло» в Анатолии. Им управляет импозантный седовласый Айдин, бывший театральный актер, чья слава давно прошла. Вместе с ним живут красавица-жена, занимающаяся благотворительностью, и сестра, тоскующая по мужу, с которым не так давно развелась. Небывалый снегопад отрезает отель от цивилизации, и он становится убежищем для этих трех человек и декорацией, в которой разыгрываются сцены их мучений.
Сэмпл: http://multi-up.com/1049799
Качество видео: HDRip
Формат видео: AVI
Видео: MPEG4, XviD, 720x304 (2.35), 23.976 fps, 1 459 Kbps (0.278 bit/pixel)
Аудио: AC-3, 48.0 KHz, 2 ch, 192 Kbps, CBR - русский
Аудио 2: AC-3, 48.0 KHz, 6 ch, 448 Kbps, CBR - турецкий

MediaInfo

Общее
Полное имя : K:\Зимняя спячка.avi
Формат : AVI
Формат/Информация : Audio Video Interleave
Профиль формата : OpenDML
Размер файла : 2,91 Гбайт
Продолжительность : 3 ч. 16 м.
Общий поток : 2115 Кбит/сек
Название фильма : Зимняя спячка / Winter Sleep / Kis Uykusu (2014)
Программа кодирования : VirtualDubMod 1.5.10.2 (build 2540/release)
Библиотека кодирования : VirtualDubMod build 2540/release
Правообладатель : miha2154
Видео
Идентификатор : 0
Формат : MPEG-4 Visual
Профиль формата : Advanced Simple@L5
Параметр BVOP формата : 1
Параметр QPel формата : Нет
Параметр GMC формата : Без точки перехода
Параметр матрицы формата : Выборочная
Идентификатор кодека : XVID
Идентификатор кодека/Подсказка : XviD
Продолжительность : 3 ч. 16 м.
Битрейт : 1459 Кбит/сек
Ширина : 720 пикселей
Высота : 304 пикселя
Соотношение сторон : 2,35:1
Частота кадров : 23,976 кадра/сек
Цветовое пространство : YUV
Субдискретизация насыщенности : 4:2:0
Битовая глубина : 8 бит
Тип развёртки : Прогрессивная
Метод сжатия : С потерями
Бит/(Пиксели*Кадры) : 0.278
Размер потока : 2,01 Гбайт (69%)
Библиотека кодирования : XviD 65
Аудио #1
Идентификатор : 1
Формат : AC-3
Формат/Информация : Audio Coding 3
Расширение режима : CM (complete main)
Параметр Endianness формата : Big
Идентификатор кодека : 2000
Продолжительность : 3 ч. 16 м.
Вид битрейта : Постоянный
Битрейт : 192 Кбит/сек
Каналы : 2 канала
Расположение каналов : Front: L R
Частота : 48,0 КГц
Битовая глубина : 16 бит
Метод сжатия : С потерями
Размер потока : 270 Мбайт (9%)
Выравнивание : Разделение по промежуткам
Продолжительность промежутка : 42 мс. (1,00 видеокадр)
Время предзагрузки промежутка : 500 мс.
Заголовок : Профессиональный (многоголосый закадровый) Кинопоказ
Аудио #2
Идентификатор : 2
Формат : AC-3
Формат/Информация : Audio Coding 3
Расширение режима : CM (complete main)
Параметр Endianness формата : Big
Идентификатор кодека : 2000
Продолжительность : 3 ч. 16 м.
Вид битрейта : Постоянный
Битрейт : 448 Кбит/сек
Каналы : 6 каналов
Расположение каналов : Front: L C R, Side: L R, LFE
Частота : 48,0 КГц
Битовая глубина : 16 бит
Метод сжатия : С потерями
Размер потока : 630 Мбайт (21%)
Выравнивание : Разделение по промежуткам
Продолжительность промежутка : 42 мс. (1,00 видеокадр)
Время предзагрузки промежутка : 500 мс.
Заголовок : Турецкий

Скриншоты





Показать сообщения:    

Текущее время: 06-Дек 13:15

Часовой пояс: UTC + 3


Вы не можете начинать темы
Вы не можете отвечать на сообщения
Вы не можете редактировать свои сообщения
Вы не можете удалять свои сообщения
Вы не можете голосовать в опросах
Вы не можете прикреплять файлы к сообщениям
Вы не можете скачивать файлы