Маленький парижанин / Un petit Parisien (Себастьен Граль / Sébastien Grall) [2002, Франция, драма, DVDRip] VO + Sub Rus + Original Fre


Статистика раздачи [Обновить пиров]
Размер:  1.32 GB   |    Зарегистрирован:  1 год 2 месяца   |    Скачан:  0 раз

Полного источника не было: Никогда

 
   
 
 
 

[Цитировать]

Маленький парижанин / Un petit Parisien
Страна: Франция
Жанр: драма
Год выпуска: 2002
Продолжительность: 01:30:46
Перевод: Одноголосый закадровый
Cубтитры: русские
Оригинальная аудиодорожка: французский
Режиссер: Себастьен Граль/Sébastien Grall
В ролях: Энцо Боссетти / Enzo Bossetti, Тибо де Монталембер / Thibault de Montalembert, Элиз Тьелрой / Elise Tielrooy, Брижитт Катийон / Brigitte Catillon, Жюльетт Дюваль / Juliette Duval, Себастьян Робер / Sébastien Robert, Жюльен Дешамп / Julien Deschamps, Виолетта Михальчук / Wioletta Michalczuk, Лили-Флёр Понте / Lilly-Fleur Pointeaux, Филип Криспо / Philippe Crespeau, Лара Гиро / Lara Guirao, Эрик Прат / Eric Prat, Бруно Раффаэлли / Bruno Raffaelli, Даниэль Клаверье / Danielle Claverie, Доминик Гаррас / Dominique Garras, Тьерри Гибо / Thierry Gibault, Венсан Грасс / Vincent Grass, Бертран Мийо / Bertrand Milliot, Ален Раймон / Alain Raymond и др.
Описание: По роману Доминик Жаме. С 1941 по 1945 годы в период немецкой оккупации жил в Париже десятилетний мальчик, мать которого умерла, а отец был холоден, авторитарен и ветренен. Наблюдая за сменой женщин своего отца, маленький Бенджи учиться жизни и осознает понемногу сомнительные политические позиции отца, которых он опасается и которыми восхищается одновременно.
Сэмпл: http://multi-up.com/1049710
Качество видео: DVDRip
Формат видео: AVI
Видео: 656x400 (1.64:1), 25 fps, ~1561 kbps avg, 0.24 bit/pixel
Аудио 1: 48 kHz, , 2 ch, ~256.00 kbps avg(Русский)
Аудио 2: 48 kHz, , 2 ch, ~256.00 kbps avg(Французский)
Формат субтитров: softsub (SRT)
Доп. информация о субтитрах: Русские внешние (paw16)

MediaInfo

Общее
Полное имя : F:\С моей озвучкой\Маленький парижанин\Un petit Parisien.avi
Формат : AVI
Формат/Информация : Audio Video Interleave
Размер файла : 1,32 Гбайт
Продолжительность : 1 ч. 30 м.
Общий поток : 2089 Кбит/сек
Программа кодирования : VirtualDubModRus 1.5.10.2 (build 2542/release)
Библиотека кодирования : VirtualDubMod build 2542/release
Видео
Идентификатор : 0
Формат : MPEG-4 Visual
Профиль формата : Advanced Simple@L5
Параметр BVOP формата : 2
Параметр QPel формата : Нет
Параметр GMC формата : Без точки перехода
Параметр матрицы формата : Default (MPEG)
Идентификатор кодека : XVID
Идентификатор кодека/Подсказка : XviD
Продолжительность : 1 ч. 30 м.
Битрейт : 1562 Кбит/сек
Ширина : 656 пикселей
Высота : 400 пикселей
Соотношение сторон : 16:10
Частота кадров : 25,000 кадров/сек
Цветовое пространство : YUV
Субдискретизация насыщенности : 4:2:0
Битовая глубина : 8 бит
Тип развёртки : Прогрессивная
Метод сжатия : С потерями
Бит/(Пиксели*Кадры) : 0.238
Размер потока : 1014 Мбайт (75%)
Библиотека кодирования : XviD 64
Аудио #1
Идентификатор : 1
Формат : AC-3
Формат/Информация : Audio Coding 3
Расширение режима : CM (complete main)
Параметр Endianness формата : Big
Идентификатор кодека : 2000
Продолжительность : 1 ч. 30 м.
Вид битрейта : Постоянный
Битрейт : 256 Кбит/сек
Каналы : 2 канала
Расположение каналов : Front: L R
Частота : 48,0 КГц
Битовая глубина : 16 бит
Метод сжатия : С потерями
Размер потока : 166 Мбайт (12%)
Выравнивание : Разделение по промежуткам
Продолжительность промежутка : 40 мс. (1,00 видеокадр)
Время предзагрузки промежутка : 500 мс.
Аудио #2
Идентификатор : 2
Формат : AC-3
Формат/Информация : Audio Coding 3
Расширение режима : CM (complete main)
Параметр Endianness формата : Big
Идентификатор кодека : 2000
Продолжительность : 1 ч. 30 м.
Вид битрейта : Постоянный
Битрейт : 256 Кбит/сек
Каналы : 2 канала
Расположение каналов : Front: L R
Частота : 48,0 КГц
Битовая глубина : 16 бит
Метод сжатия : С потерями
Размер потока : 166 Мбайт (12%)
Выравнивание : Разделение по промежуткам
Продолжительность промежутка : 40 мс. (1,00 видеокадр)
Время предзагрузки промежутка : 500 мс.

Скриншоты

[teatrix.ru].t5831.torrent 
Торрент: Зарегистрирован [ 2015-10-10 00:35 ] · 621AB199A67F607726E7D602C0773D8820689D8F

Скачать .torrent

Скачать

14 KB

Статус: проверено
Скачан: 0 раз
Размер: 1.32 GB
terms.php



Быстрый ответ

Имя:

      
Для отправки сообщений необходимо включить JavaScript
Показать сообщения:    

Текущее время: 10-Дек 08:04

Часовой пояс: UTC + 3


Вы можете начинать темы
Вы можете отвечать на сообщения
Вы не можете редактировать свои сообщения
Вы не можете удалять свои сообщения
Вы не можете голосовать в опросах
Вы не можете прикреплять файлы к сообщениям
Вы можете скачивать файлы