Танцующая в темноте / Dancer in the Dark (Ларс фон Триер / Lars von Trier) [2000, Дания, Мюзикл, драма, криминал, BDRip] Dub + Sub


 

[Цитировать]

Танцующая в темноте / Dancer in the Dark- Год выпуска: 2000
Страна: Дания, Швеция, США, Аргентина, Великобритания, Германия, Исландия, Испания, Италия, Нидерланды, Норвегия, Финляндия, Франция
Жанр: мюзикл, драма, криминал
Продолжительность: 02:20:17
Перевод: Профессиональный (полное дублирование)
Cубтитры: Русские (форсированные на песни) (внешние .srt*)-Режиссер:
Ларс фон Триер / Lars von Trier-В ролях:
Бьорк (Selma Jezkova), Катрин Денёв (Kathy), Дэвид Морс (Bill Houston), Петер Стормаре (Jeff), Джоэл Грей (Oldrich Novy), Кэра Сеймур (Linda Houston), Владика Костич (Gene Jezkova), Жан-Марк Барр (Norman), Винсент Пэтерсон (Samuel), Шиван Фэллон (Brenda)-Описание:
Знаете ли Вы, что такое камера обскура? Это пропасть, обрывающая мир солнечного света и теней и ввергающая в царство мрачной, черной пустоты. Отчаяние, страх, недоумение и… надежда, ведь надежда, как известно, всегда умирает последней. Или вовсе не умирает… И музыка, звучащая отовсюду.-IMDB | КиноПоиск | Сэмпл |-Качество: BDRip [BDRemux | 1080p]
Формат: AVI
Видео: 704x304 (2.32:1), 23.976 fps, XviD build 73 ~1286 kbps avg, 0.25 bit/pixel
Аудио: 48 kHz, AC3 Dolby Digital, 2/0 (L,R) ch, ~192.00 kbps avg
-

Скриншоты

MediaInfo

General
Complete name                            : D:\Tancuuschaya_v_temnote_2000_BDRip_by_Dalemake.avi
Format                                   : AVI
Format/Info                              : Audio Video Interleave
File size                                : 1.46 GiB
Duration                                 : 2h 20mn
Overall bit rate                         : 1 488 Kbps
Writing application                      : VirtualDubMod 1.5.10.3 | www.virtualdub-fr.org || (build 2550/release)
Writing library                          : VirtualDubMod build 2550/release
Video
ID                                       : 0
Format                                   : MPEG-4 Visual
Format profile                           : Advanced Simple@L5
Format settings, BVOP                    : 1
Format settings, QPel                    : No
Format settings, GMC                     : No warppoints
Format settings, Matrix                  : Custom
Codec ID                                 : XVID
Codec ID/Hint                            : XviD
Duration                                 : 2h 20mn
Bit rate                                 : 1 287 Kbps
Width                                    : 704 pixels
Height                                   : 304 pixels
Display aspect ratio                     : 2.35:1
Frame rate                               : 23.976 fps
Color space                              : YUV
Chroma subsampling                       : 4:2:0
Bit depth                                : 8 bits
Scan type                                : Progressive
Compression mode                         : Lossy
Bits/(Pixel*Frame)                       : 0.251
Stream size                              : 1.26 GiB (86%)
Writing library                          : XviD 73
Audio
ID                                       : 1
Format                                   : AC-3
Format/Info                              : Audio Coding 3
Mode extension                           : CM (complete main)
Format settings, Endianness              : Big
Codec ID                                 : 2000
Duration                                 : 2h 20mn
Bit rate mode                            : Constant
Bit rate                                 : 192 Kbps
Channel(s)                               : 2 channels
Channel positions                        : Front: L R
Sampling rate                            : 48.0 KHz
Bit depth                                : 16 bits
Compression mode                         : Lossy
Stream size                              : 193 MiB (13%)
Alignment                                : Split accross interleaves
Interleave, duration                     : 42 ms (1.00 video frame)
Interleave, preload duration             : 500 ms
-



Показать сообщения:    

Текущее время: 11-Дек 07:13

Часовой пояс: UTC + 3


Вы не можете начинать темы
Вы не можете отвечать на сообщения
Вы не можете редактировать свои сообщения
Вы не можете удалять свои сообщения
Вы не можете голосовать в опросах
Вы не можете прикреплять файлы к сообщениям
Вы не можете скачивать файлы