На запчасти / Автомастерская / Chop Shop (Ramin Bahrani / Рамин Бахрани) [2007, США, драма, DVDRip] VO + Sub Rus + Original Eng


Статистика раздачи [Обновить пиров]
Размер:  763 MB   |    Зарегистрирован:  1 год 1 месяц   |    Скачан:  0 раз

Полного источника не было: Никогда

 
   
 
 
 

[Цитировать]

Автомастерская / Chop Shop
Страна: США
Жанр: драма
Год выпуска: 2007
Продолжительность: 01:24:08
Перевод: Одноголосый закадровый
Cубтитры: русские
Оригинальная аудиодорожка: английский
Режиссер: Ramin Bahrani / Рамин Бахрани
В ролях: Alejandro Polanco, Isamar Gonzales, Ahmad Razvi, Carlos Zapata, Rob Sowulski
Описание: Практически документальный взгляд на задворки большого города; юный Алехандро пытается устроить лучшую жизнь для себя и своей сестры.
Фильм содержит ненормативную лексику!
Сэмпл: http://multi-up.com/1049530
Качество видео: DVDRip
Формат видео: AVI
Видео: 576x320 (1.80:1), 23.976 fps, ~997 kbps avg, 0.23 bit/pixel
Аудио 1: 48 kHz, , 2 ch, ~128.00 kbps avg(Русский)
Аудио 2: 48 kHz, , 2 ch, ~128.00 kbps avg(Английский)
Формат субтитров: softsub (SRT)
Доп. информация о субтитрах: Русские внешние (blues)

MediaInfo

Общее
Полное имя : F:\С моей озвучкой\Автомастерская\Chop Shop.avi
Формат : AVI
Формат/Информация : Audio Video Interleave
Размер файла : 763 Мбайт
Продолжительность : 1 ч. 24 м.
Общий поток : 1268 Кбит/сек
Программа кодирования : VirtualDubModRus 1.5.10.2 (build 2542/release)
Библиотека кодирования : VirtualDubMod build 2542/release
Видео
Идентификатор : 0
Формат : MPEG-4 Visual
Профиль формата : Advanced Simple@L5
Параметр BVOP формата : 2
Параметр QPel формата : Нет
Параметр GMC формата : Без точки перехода
Параметр матрицы формата : Default (MPEG)
Режим смешивания : Сжатый битовый поток
Идентификатор кодека : XVID
Идентификатор кодека/Подсказка : XviD
Продолжительность : 1 ч. 24 м.
Битрейт : 998 Кбит/сек
Ширина : 576 пикселей
Высота : 320 пикселей
Соотношение сторон : 16:9
Частота кадров : 23,976 кадра/сек
Цветовое пространство : YUV
Субдискретизация насыщенности : 4:2:0
Битовая глубина : 8 бит
Тип развёртки : Прогрессивная
Метод сжатия : С потерями
Бит/(Пиксели*Кадры) : 0.226
Размер потока : 601 Мбайт (79%)
Библиотека кодирования : XviD 1.1.2 (UTC 2006-11-01)
Аудио #1
Идентификатор : 1
Формат : MPEG Audio
Версия формата : Version 1
Профиль формата : Layer 3
Режим : Joint stereo
Идентификатор кодека : 55
Идентификатор кодека/Подсказка : MP3
Продолжительность : 1 ч. 24 м.
Вид битрейта : Постоянный
Битрейт : 128 Кбит/сек
Каналы : 2 канала
Частота : 48,0 КГц
Метод сжатия : С потерями
Размер потока : 77,0 Мбайт (10%)
Выравнивание : Соединение по промежуткам
Продолжительность промежутка : 42 мс. (1,00 видеокадр)
Время предзагрузки промежутка : 504 мс.
Библиотека кодирования : LAME3.96
Аудио #2
Идентификатор : 2
Формат : MPEG Audio
Версия формата : Version 1
Профиль формата : Layer 3
Режим : Joint stereo
Идентификатор кодека : 55
Идентификатор кодека/Подсказка : MP3
Продолжительность : 1 ч. 24 м.
Вид битрейта : Постоянный
Битрейт : 128 Кбит/сек
Каналы : 2 канала
Частота : 48,0 КГц
Метод сжатия : С потерями
Размер потока : 77,0 Мбайт (10%)
Выравнивание : Соединение по промежуткам
Продолжительность промежутка : 42 мс. (1,00 видеокадр)
Время предзагрузки промежутка : 504 мс.
Библиотека кодирования : LAME3.98

Скриншоты

[teatrix.ru].t5834.torrent 
Торрент: Зарегистрирован [ 2015-10-10 00:35 ] · 9ACC70AE501F472BE4DB9706535F546550B06111

Скачать .torrent

Скачать

15 KB

Статус: проверено
Скачан: 0 раз
Размер: 763 MB
terms.php



Быстрый ответ

Имя:

      
Для отправки сообщений необходимо включить JavaScript
Показать сообщения:    

Текущее время: 06-Дек 17:06

Часовой пояс: UTC + 3


Вы можете начинать темы
Вы можете отвечать на сообщения
Вы не можете редактировать свои сообщения
Вы не можете удалять свои сообщения
Вы не можете голосовать в опросах
Вы не можете прикреплять файлы к сообщениям
Вы можете скачивать файлы