Новая Земля / Aretz Hadasha (Орна Бен-Дор Нив / Orna Ben-Dor Niv) [1994, Израиль, драма, TeleCine] VO + Sub Rus + Original


Статистика раздачи [Обновить пиров]
Размер:  788 MB   |    Зарегистрирован:  1 год 1 месяц   |    Скачан:  0 раз

Полного источника не было: 2 месяца 6 дней

 
   
 
 
 

[Цитировать]

Новая Земля / Aretz Hadasha
Страна: Израиль
Жанр: Драма
Год выпуска: 1994
Продолжительность: 01:46:47
Перевод: Одноголосый закадровый
Cубтитры: русские
Оригинальная аудиодорожка: Иврит, Польский, Идиш
Режиссер: Орна Бен-Дор Нив / Orna Ben-Dor Niv
В ролях: Этти Анкри, Гедалия Бессер, Гай Бракка, Аня Букштейн
Описание: В фильме воспроизводится атмосфера иммигрантских бараков начала 50-х годов. Брат и сестра прибывают после Второй мировой войны в новую страну - Израиль, надеясь найти свою мать. У Яна есть только маленькая Анна, у нее - только спасенный ею медведь. И так трудно найти свою Новую Землю... Сложности жизни в лагере для беженцев и кибуце разворачиваются, казалось бы, в обычную драму, но в финале зрителя ждет фантастический выход из ситуации.
Доп. информация: Фильм взят отсюда http://teatrix.ru/viewtopic.php?t=7132
Сэмпл: http://multi-up.com/1049360
Качество видео: TeleCine
Формат видео: AVI
Видео: 512x400 (1.28:1), 29.970 fps, ~788 kbps avg, 0.13 bit/pixel
Аудио 1: 44.100 kHz, , 2 ch, ~111.78 kbps avg(Русский)
Аудио 2: 44.100 kHz, , 2 ch, ~112.00 kbps avg(Иврит, Польский, Идиш)
Формат субтитров: softsub (SRT)
Доп. информация о субтитрах: Русские внешние (tyomitch), английские

MediaInfo

Общее
Полное имя : F:\С моей озвучкой\Новая Земля\Aretz Hadasha.avi
Формат : AVI
Формат/Информация : Audio Video Interleave
Размер файла : 787 Мбайт
Продолжительность : 1 ч. 46 м.
Общий поток : 1031 Кбит/сек
Программа кодирования : VirtualDubModRus 1.5.10.2 (build 2542/release)
Библиотека кодирования : VirtualDubMod build 2542/release
Видео
Идентификатор : 0
Формат : MPEG-4 Visual
Профиль формата : Advanced Simple@L5
Параметр BVOP формата : 1
Параметр QPel формата : Нет
Параметр GMC формата : Без точки перехода
Параметр матрицы формата : Default (H.263)
Режим смешивания : Сжатый битовый поток
Идентификатор кодека : XVID
Идентификатор кодека/Подсказка : XviD
Продолжительность : 1 ч. 46 м.
Битрейт : 789 Кбит/сек
Ширина : 512 пикселей
Высота : 400 пикселей
Соотношение сторон : 1,280
Частота кадров : 29,970 кадров/сек
Цветовое пространство : YUV
Субдискретизация насыщенности : 4:2:0
Битовая глубина : 8 бит
Тип развёртки : Прогрессивная
Метод сжатия : С потерями
Бит/(Пиксели*Кадры) : 0.129
Размер потока : 603 Мбайт (77%)
Библиотека кодирования : XviD 1.2.0.dev47 (UTC 2006-11-01)
Аудио #1
Идентификатор : 1
Формат : MPEG Audio
Версия формата : Version 1
Профиль формата : Layer 3
Режим : Joint stereo
Расширение режима : MS Stereo
Идентификатор кодека : 55
Идентификатор кодека/Подсказка : MP3
Продолжительность : 1 ч. 46 м.
Вид битрейта : Постоянный
Битрейт : 112 Кбит/сек
Каналы : 2 канала
Частота : 44,1 КГц
Метод сжатия : С потерями
Размер потока : 85,3 Мбайт (11%)
Выравнивание : Соединение по промежуткам
Продолжительность промежутка : 33 мс. (1,00 видеокадр)
Время предзагрузки промежутка : 522 мс.
Библиотека кодирования : LAME3.96
Язык : Hebrew
Аудио #2
Идентификатор : 2
Формат : MPEG Audio
Версия формата : Version 1
Профиль формата : Layer 3
Режим : Joint stereo
Расширение режима : MS Stereo
Идентификатор кодека : 55
Идентификатор кодека/Подсказка : MP3
Продолжительность : 1 ч. 46 м.
Вид битрейта : Постоянный
Битрейт : 112 Кбит/сек
Каналы : 2 канала
Частота : 44,1 КГц
Метод сжатия : С потерями
Размер потока : 85,5 Мбайт (11%)
Выравнивание : Разделение по промежуткам
Продолжительность промежутка : 33 мс. (1,00 видеокадр)
Время предзагрузки промежутка : 500 мс.

Скриншоты

[teatrix.ru].t5836.torrent 
Торрент: Зарегистрирован [ 2015-10-10 00:35 ] · 23D3F99D179F268054065099CEECEA802C4EBAAF

Скачать .torrent

Скачать

16 KB

Статус: проверено
Скачан: 0 раз
Размер: 788 MB
terms.php



Быстрый ответ

Имя:

      
Для отправки сообщений необходимо включить JavaScript
Показать сообщения:    

Текущее время: 08-Дек 21:13

Часовой пояс: UTC + 3


Вы можете начинать темы
Вы можете отвечать на сообщения
Вы не можете редактировать свои сообщения
Вы не можете удалять свои сообщения
Вы не можете голосовать в опросах
Вы не можете прикреплять файлы к сообщениям
Вы можете скачивать файлы