Мой Виннипег / My Winnipeg (Гай Мэддин / Guy Maddin) [2007, Канада, драма, комедия, история, документальный, HDRip] Sub Rus + Original Eng


Статистика раздачи [Обновить пиров]
Размер:  1.46 GB   |    Зарегистрирован:  1 год 1 месяц   |    Скачан:  0 раз

Полного источника не было: Никогда

 
   
 
 
 

[Цитировать]

Мой Виннипег / My Winnipeg
Страна: Канада
Жанр: драма, комедия, история, документальный
Год выпуска: 2007
Продолжительность: 01:20:05
Перевод: Субтитры (А. Ботев)
Cубтитры: русские
Оригинальная аудиодорожка: английский
Режиссер: Гай Мэддин / Guy Maddin
В ролях: Энн Сэвидж, Дарси Фер, Эми Стюарт, Брендан Кейд, Уэсли Кейд, Луи Нежэн, Кейт Якула, Жаслин Лобэй, Лу Профета, Фред Дансмор, Гай Мэддин и др.
Описание: Режиссер, Гай Мэддин, снимает фильм про самого себя, Гая Мэддина, снимающего фильм про самого себя, Гая Мэддина. Реальное перемешивается с воображаемым так же тесно, как явь со сном — в фильме почти или вовсе невозможно разобрать, где сон, где явь. Более того, сновидение само по себе является главной темой фильма. К-диаграмма тут поистине, диавольски сложна, в первую очередь из-за мистификаторской псевдодокументальной природы фильма.
Sample

Работа с видео: whip93
Качество видео: HDRip (исх. My.Winnipeg.2007.720p.BluRay.x264-WaLMaRT)
Формат видео: AVI
Видео: Xvid 720x544 23.976fps 2212kbps
Аудио: Dolby AC3 48000Hz 2ch 384kbps
Формат субтитров: softsub (SRT)

Фрагмент субтитров

1
00:00:22,020 --> 00:00:24,950
(голос за кадром) Ладно, хорошо,
''Я не вчера родилась, дорогуша''.
2
00:00:25,020 --> 00:00:27,280
Я не вчера родилась, дорогуша.
3
00:00:27,360 --> 00:00:29,290
''Я все знаю о мехе
и крови''.
4
00:00:29,360 --> 00:00:32,050
Я все знаю о мехе
и крови.
5
00:00:32,130 --> 00:00:35,650
- ''Где это было?''
- Где это было? На заднем сиденье?
6
00:00:35,730 --> 00:00:38,700
- Где это было?
- Ну правда, вечеринка!
7
00:00:38,770 --> 00:00:42,860
(за кадром) Так, давайте снова.
''Ну правда, вечеринка. Он тебя связал?''
8
00:00:42,940 --> 00:00:46,770
- Ну правда, вечеринка. Он тебя связал?
- ''Или ты сама нагнулась...''
9
00:00:46,840 --> 00:00:50,610
Или ты сама нагнулась
и предоставила действовать природе?
10
00:00:50,680 --> 00:00:53,380
''Или ты сама нагнулась
и предоставила действовать природе?''
11
00:00:53,450 --> 00:00:57,040
Или ты сама нагнулась
и предоставила действовать природе?
12
00:00:57,120 --> 00:01:00,820
''Это был парень из дорожной бригады
или тот мужчина с монтировкой?''
13
00:01:00,890 --> 00:01:05,420
Это был парень из дорожной бригады
или тот мужчина с монтировкой?
14
00:01:05,490 --> 00:01:09,020
Нет, немного более сердито.
''Это был парень из дорожной бригады?''
15
00:01:09,100 --> 00:01:13,190
Был это парень из дорожной бригады
или тот мужчина с монтировкой?
16
00:01:13,270 --> 00:01:15,860
- Отлично. Стоп.
- Снято.
17
00:02:56,510 --> 00:02:59,800
Посадка закончена!
18
00:03:36,710 --> 00:03:38,770
Виннипег.
19
00:03:43,990 --> 00:03:48,450
- Снежный Виннипег, город лунатиков.
20
00:03:57,570 --> 00:04:00,560
Мой дом на целую жизнь.

MediaInfo

General
Complete name : G:\My Winnipeg 2007 HDRip whip93\My.Winnipeg.2007.HDRip.whip93.avi
Format : AVI
Format/Info : Audio Video Interleave
File size : 1.46 GiB
Duration : 1h 20mn
Overall bit rate : 2 605 Kbps
Writing application : VirtualDubMod 1.5.10.3 | www.virtualdub-fr.org || (build 2550/release)
Writing library : VirtualDubMod build 2550/release
Video
ID : 0
Format : MPEG-4 Visual
Format profile : Advanced Simple@L5
Format settings, BVOP : 1
Format settings, QPel : No
Format settings, GMC : No warppoints
Format settings, Matrix : Default (MPEG)
Codec ID : XVID
Codec ID/Hint : XviD
Duration : 1h 20mn
Bit rate : 2 212 Kbps
Width : 720 pixels
Height : 544 pixels
Display aspect ratio : 4:3
Frame rate : 23.976 fps
Color space : YUV
Chroma subsampling : 4:2:0
Bit depth : 8 bits
Scan type : Progressive
Compression mode : Lossy
Bits/(Pixel*Frame) : 0.236
Stream size : 1.24 GiB (85%)
Writing library : XviD 65
Audio
ID : 1
Format : AC-3
Format/Info : Audio Coding 3
Mode extension : CM (complete main)
Format settings, Endianness : Big
Codec ID : 2000
Duration : 1h 20mn
Bit rate mode : Constant
Bit rate : 384 Kbps
Channel(s) : 2 channels
Channel positions : Front: L R
Sampling rate : 48.0 KHz
Bit depth : 16 bits
Compression mode : Lossy
Stream size : 220 MiB (15%)
Alignment : Split accross interleaves
Interleave, duration : 42 ms (1.00 video frame)
Interleave, preload duration : 500 ms

Скриншоты

[teatrix.ru].t5838.torrent 
Торрент: Зарегистрирован [ 2015-10-10 00:35 ] · A8B43694D2054B01B13C967207AC7BA0663BF6D0

Скачать .torrent

Скачать

15 KB

Статус: проверено
Скачан: 0 раз
Размер: 1.46 GB
terms.php



Быстрый ответ

Имя:

      
Для отправки сообщений необходимо включить JavaScript
Показать сообщения:    

Текущее время: 03-Дек 14:36

Часовой пояс: UTC + 3


Вы можете начинать темы
Вы можете отвечать на сообщения
Вы не можете редактировать свои сообщения
Вы не можете удалять свои сообщения
Вы не можете голосовать в опросах
Вы не можете прикреплять файлы к сообщениям
Вы можете скачивать файлы