Плод страсти / Страсть / De Passievrucht (Маартен Треёньет / Maarten Treurniet) [2003, Нидерланды, драма, DVDRip] VO + Sub Rus + Original Dut


Статистика раздачи [Обновить пиров]
Размер:  1.53 GB   |    Зарегистрирован:  1 год 1 месяц   |    Скачан:  0 раз

Полного источника не было: 2 месяца 2 дня

 
   
 
 
 

[Цитировать]

Плод страсти / De passievrucht
Страна: Нидерланды
Жанр: драма
Год выпуска: 2003
Продолжительность: 01:41:37
Перевод: Одноголосый закадровый
Cубтитры: русские
Оригинальная аудиодорожка: Голландский
Режиссер: Маартен Треёньет / Maarten Treurniet
В ролях: Питер Пол Мюллер (Armin Minderhout), Кэрис Ван Хаутен (Monika), Халина Рейн (Ellen), Ян Деклер (Huib Minderhout), Даи Картер (Bo), Фрэнк Ламмерс (Dees), Гийс Шолтен ван Ашат (Family Doctor Terlinden), Джероен Уиллемс (Robbert Hubeek), Андре Аренд ван де Норд (Niko Neerinckx), Марлис Хейер (Monika´s mother), Дион Менсинк (Bo)
Описание: Армин Миндерхоут в замешательстве. На приеме у доктора он узнает, что от рождения бесплоден. А это означает, что его 14-летний сын, Бо - не его собственное дитя. Он не может спросить у своей жены, потому что она скончалась 9 лет назад. Армин решает во что бы то ни стало выяснить, кто отец его сына. Его подруга знает биологического отца, но он не знает этого. Армин начинает подозревать каждого знакомого своей жены. Со временем отношения между ним, его подругой и его сыном ухудшаются. К чему же в итоге приведут поиски истины?
Сэмпл: http://multi-up.com/1048746
Качество видео: DVDRip
Формат видео: AVI
Видео: 720x304 (2.37:1), 25 fps, ~1464 kbps avg, 0.27 bit/pixel
Аудио 1: 48 kHz, , 2 ch, ~224.00 kbps avg(Русский)
Аудио 2: 48 kHz, , 6 ch, ~448.00 kbps avg(Голландский)
Формат субтитров: softsub (SRT)
Доп. информация о субтитрах: Русские внешние (friendlydim)

MediaInfo

Общее
Полное имя : F:\С моей озвучкой\Плод страсти\De passievrucht.avi
Формат : AVI
Формат/Информация : Audio Video Interleave
Размер файла : 1,53 Гбайт
Продолжительность : 1 ч. 41 м.
Общий поток : 2151 Кбит/сек
Программа кодирования : VirtualDubModRus 1.5.10.2 (build 2542/release)
Библиотека кодирования : VirtualDubMod build 2542/release
Видео
Идентификатор : 0
Формат : MPEG-4 Visual
Профиль формата : Advanced Simple@L5
Параметр BVOP формата : 2
Параметр QPel формата : Нет
Параметр GMC формата : Без точки перехода
Параметр матрицы формата : Default (H.263)
Режим смешивания : Сжатый битовый поток
Идентификатор кодека : XVID
Идентификатор кодека/Подсказка : XviD
Продолжительность : 1 ч. 41 м.
Битрейт : 1465 Кбит/сек
Ширина : 720 пикселей
Высота : 304 пикселя
Соотношение сторон : 2,35:1
Частота кадров : 25,000 кадров/сек
Цветовое пространство : YUV
Субдискретизация насыщенности : 4:2:0
Битовая глубина : 8 бит
Тип развёртки : Прогрессивная
Метод сжатия : С потерями
Бит/(Пиксели*Кадры) : 0.268
Размер потока : 1,04 Гбайт (68%)
Библиотека кодирования : XviD 1.2.1 (UTC 2008-12-04)
Аудио #1
Идентификатор : 1
Формат : AC-3
Формат/Информация : Audio Coding 3
Расширение режима : CM (complete main)
Параметр Endianness формата : Big
Идентификатор кодека : 2000
Продолжительность : 1 ч. 41 м.
Вид битрейта : Постоянный
Битрейт : 224 Кбит/сек
Каналы : 2 канала
Расположение каналов : Front: L R
Частота : 48,0 КГц
Битовая глубина : 16 бит
Метод сжатия : С потерями
Размер потока : 163 Мбайт (10%)
Выравнивание : Разделение по промежуткам
Продолжительность промежутка : 40 мс. (1,00 видеокадр)
Время предзагрузки промежутка : 500 мс.
Аудио #2
Идентификатор : 2
Формат : AC-3
Формат/Информация : Audio Coding 3
Расширение режима : CM (complete main)
Параметр Endianness формата : Big
Идентификатор кодека : 2000
Продолжительность : 1 ч. 41 м.
Вид битрейта : Постоянный
Битрейт : 448 Кбит/сек
Каналы : 6 каналов
Расположение каналов : Front: L C R, Side: L R, LFE
Частота : 48,0 КГц
Битовая глубина : 16 бит
Метод сжатия : С потерями
Задержка видео : 80 мс.
Размер потока : 325 Мбайт (21%)
Выравнивание : Разделение по промежуткам
Продолжительность промежутка : 40 мс. (1,00 видеокадр)
Время предзагрузки промежутка : 500 мс.

Скриншоты

[teatrix.ru].t5839.torrent 
Торрент: Зарегистрирован [ 2015-10-10 00:35 ] · C04D864969FF25D490342D8141299C8F526F3B8A

Скачать .torrent

Скачать

16 KB

Статус: проверено
Скачан: 0 раз
Размер: 1.53 GB
terms.php



Быстрый ответ

Имя:

      
Для отправки сообщений необходимо включить JavaScript
Показать сообщения:    

Текущее время: 03-Дек 20:43

Часовой пояс: UTC + 3


Вы можете начинать темы
Вы можете отвечать на сообщения
Вы не можете редактировать свои сообщения
Вы не можете удалять свои сообщения
Вы не можете голосовать в опросах
Вы не можете прикреплять файлы к сообщениям
Вы можете скачивать файлы