Дочери тьмы / Кровь на губах / Les lèvres rouges / Daughters of Darkness (Гарри Кюмель / Harry Kümel) [1971, Франция, Бельгия, Германия, ужасы, BDRip] AVO (Антон Алексеев) + VO (Вадим Белов) + Sub Rus + Original Fre


 

[Цитировать]

Дочери тьмы / Кровь на губах / Les lèvres rouges / Daughters of Darkness
Страна: Франция, Бельгия, Германия
Жанр: ужасы
Год выпуска: 1971
Продолжительность: 01:40:00
Перевод: Авторский (одноголосый закадровый) - Антон Алексеев
Перевод: Одноголосый закадровый - Вадим Белов
Cубтитры: русские, английские
Оригинальная аудиодорожка: французский

Режиссер: Гарри Кюмель / Harry Kümel
В ролях: Дельфин Сейриг, Джон Карлен, Даниэль Оуме, Андреа Рау, Поль Эссер, Жорж Джеймин, Йорис Колле, Фонс Радемакерс
Описание: Только что поженившаяся пара, Стефан и Валери, на пути в Британию останавливаются в огромном прибрежном отеле, где кроме них и консьержа никого больше нет — зима. Однако вскоре заселяются еще две постоялицы — некая графиня Батори и ее очаровательная спутница-секретарь Илона. Консьерж отеля в шоке, ведь еще мальчиком, сорок лет назад, он запомнил визит графини, и с тех пор она ни капельки не изменилась… Хотя Стефан и Валери поженились всего несколько дней назад, в их отношениях уже начали появляться трещинки — Валери начала бояться своего мужа, в котором все более явно проявлялись садистские наклонности. Этим обстоятельством не преминула воспользоваться госпожа Батори, влюбившаяся в прекрасную Валери и желающая на примере Стефана показать своей новой любви всю скотскую сущность и жалкое ничтожество мужчин… Для оной демонстрации прекрасно сгодилась ее «старая любовь», Илона, которая без сожалений была «принесена в жертву обстоятельствам», а вскоре после этого за ней последовал и Стефан…
Качество видео: BDRip
Формат видео: AVI
Видео: 720x432 (1.67:1), 23.976 fps, XviD build 73 ~1882 kbps avg, 0.25 bit/pixel
Аудио: 48 kHz, AC3 Dolby Digital, 2/0 (L,R) ch, ~192 kbps - Алексеев
отдельными файлами:
Аудио: 48 kHz, AC3 Dolby Digital, 1/0 (C) ch, ~192 kbps - Белов
Аудио: 48 kHz, AC3 Dolby Digital, 1/0 (C) ch, ~192 kbps - оригинал
Аудио: 48 kHz, AC3 Dolby Digital, 1/0 (C) ch, ~192 kbps - английский

MediaInfo

Общее
Полное имя : H:\Daughters.of.Darkness.1971.bdrip_[1.46]_[teko].avi
Формат : AVI
Формат/Информация : Audio Video Interleave
Размер файла : 1,46 Гбайт
Продолжительность : 1 ч. 40 м.
Общий поток : 2084 Кбит/сек
Программа кодирования : VirtualDubMod 1.5.10.3 | www.virtualdub-fr.org || (build 2550/release)
Библиотека кодирования : VirtualDubMod build 2550/release
Видео
Идентификатор : 0
Формат : MPEG-4 Visual
Профиль формата : Advanced Simple@L5
Параметр BVOP формата : 1
Параметр QPel формата : Нет
Параметр GMC формата : Без точки перехода
Параметр матрицы формата : Выборочная
Идентификатор кодека : XVID
Идентификатор кодека/Подсказка : XviD
Продолжительность : 1 ч. 39 м.
Битрейт : 1882 Кбит/сек
Ширина : 720 пикселей
Высота : 432 пикселя
Соотношение сторон : 1,667
Частота кадров : 23,976 кадра/сек
Цветовое пространство : YUV
Субдискретизация насыщенности : 4:2:0
Битовая глубина : 8 бит
Тип развёртки : Прогрессивная
Метод сжатия : С потерями
Бит/(Пиксели*Кадры) : 0.252
Размер потока : 1,31 Гбайт (90%)
Библиотека кодирования : XviD 73
Аудио
Идентификатор : 1
Формат : AC-3
Формат/Информация : Audio Coding 3
Расширение режима : CM (complete main)
Параметр Endianness формата : Big
Идентификатор кодека : 2000
Продолжительность : 1 ч. 40 м.
Вид битрейта : Постоянный
Битрейт : 192 Кбит/сек
Каналы : 2 канала
Расположение каналов : Front: L R
Частота : 48,0 КГц
Битовая глубина : 16 бит
Метод сжатия : С потерями
Размер потока : 137 Мбайт (9%)
Выравнивание : Разделение по промежуткам
Продолжительность промежутка : 42 мс. (1,00 видеокадр)
Время предзагрузки промежутка : 500 мс.



Показать сообщения:    

Текущее время: 11-Дек 16:54

Часовой пояс: UTC + 3


Вы не можете начинать темы
Вы не можете отвечать на сообщения
Вы не можете редактировать свои сообщения
Вы не можете удалять свои сообщения
Вы не можете голосовать в опросах
Вы не можете прикреплять файлы к сообщениям
Вы не можете скачивать файлы