Дикая / Wild (Жан-Марк Валле / Jean-Marc Vallee) [2014, США, драма, биография, BDRip] Dub (EUR) + Original Eng + Sub (Rus, Ukr, Eng)


 

[Цитировать]

Дикая / Wild- Год выпуска: 2014
Страна: США
Жанр: драма, биография
Продолжительность: 01:55:36
Перевод: Профессиональный (полное дублирование) EUR
+ Оригинальная звуковая дорожка
Субтитры: Русские (полные - 2 вида, комментарии), английские (обычные, SDH, SDH-Colored), украинские (внешние srt*)-Режиссер: Жан-Марк Валле / Jean-Marc Vallée
В ролях: Риз Уизерспун, Лора Дерн, Томас Садоски, Кин МакРей, Михил Хаушман, У. Эрл Браун, Габи Хоффманн, Кевин О. Ранкин, Брайан Ван Холт, Клифф Де Янг
О фильме: В центре сюжета Шерил Стрэйд, раздавленная неудавшимся браком и смертью матери и потерявшая всякую надежду на счастье женщина, отправляется в пешее странствие по территории Pacific Crest Trail — маршруту по наиболее высоким участкам хребта Сьерра-Невада и Каскадных гор. Испытания, выпавшие в этом опасном одиночном путешествии на долю героини, неминуемо исцеляют ее от душевных страданий, но процесс этот будет отнюдь не безболезненным.-Релиз:
Автор: yaroslaigor
Качество: BDRip (источник: / BD-Remux / 1080p)
Формат: AVI
Видео: 720x304 (2.37:1), 23.976 fps, XviD build 65 ~1800 kbps avg, 0.34 bit/pixel
Аудио #1: 48 kHz, AC3 Dolby Digital, 3/2 (L,C,R,l,r) + LFE ch, ~448.00 kbps avg rus
Аудио #2: 48 kHz, AC3 Dolby Digital, 3/2 (L,C,R,l,r) + LFE ch, ~448.00 kbps avg eng
Размер: 2235.14 Mb (1/2 DVD-R)
Скачать: Семпл-

Кадры из фильма


-

Mi

Формат : AVI
Формат/Информация : Audio Video Interleave
Профиль формата : OpenDML
Размер файла : 2,18 Гбайт
Продолжительность : 1 ч. 55 м.
Общий поток : 2703 Кбит/сек
Название фильма : Дикая / Wild (2014) BDRip
Режиссёр : yaroslaigor
Жанр : драма, биография
Программа кодирования : VirtualDubMod 1.5.10.2 (build 2540/release)
Примечание : 13.05.2015
Видео
Идентификатор : 0
Формат : MPEG-4 Visual
Профиль формата : Advanced Simple@L5
Параметр BVOP формата : 1
Параметр QPel формата : Нет
Параметр GMC формата : Без точки перехода
Параметр матрицы формата : Выборочная
Идентификатор кодека : XVID
Идентификатор кодека/Подсказка : XviD
Продолжительность : 1 ч. 55 м.
Битрейт : 1789 Кбит/сек
Ширина : 720 пикселей
Высота : 304 пикселя
Соотношение сторон : 2,35:1
Частота кадров : 23,976 кадра/сек
Цветовое пространство : YUV
Субдискретизация насыщенности : 4:2:0
Битовая глубина : 8 бит
Тип развёртки : Прогрессивная
Метод сжатия : С потерями
Бит/(Пиксели*Кадры) : 0.341
Размер потока : 1,44 Гбайт (66%)
Библиотека кодирования : XviD 65
Аудио #1
Идентификатор : 1
Формат : AC-3
Формат/Информация : Audio Coding 3
Расширение режима : CM (complete main)
Параметр Endianness формата : Big
Идентификатор кодека : 2000
Продолжительность : 1 ч. 55 м.
Вид битрейта : Постоянный
Битрейт : 448 Кбит/сек
Каналы : 6 каналов
Расположение каналов : Front: L C R, Side: L R, LFE
Частота : 48,0 КГц
Битовая глубина : 16 бит
Метод сжатия : С потерями
Размер потока : 370 Мбайт (17%)
Выравнивание : Разделение по промежуткам
Продолжительность промежутка : 42 мс. (1,00 видеокадр)
Время предзагрузки промежутка : 500 мс.
Аудио #2
Идентификатор : 2
Формат : AC-3
Формат/Информация : Audio Coding 3
Расширение режима : CM (complete main)
Параметр Endianness формата : Big
Идентификатор кодека : 2000
Продолжительность : 1 ч. 55 м.
Вид битрейта : Постоянный
Битрейт : 448 Кбит/сек
Каналы : 6 каналов
Расположение каналов : Front: L C R, Side: L R, LFE
Частота : 48,0 КГц
Битовая глубина : 16 бит
Метод сжатия : С потерями
Размер потока : 370 Мбайт (17%)
Выравнивание : Разделение по промежуткам
Продолжительность промежутка : 42 мс. (1,00 видеокадр)
Время предзагрузки промежутка : 500 мс.
-



Показать сообщения:    

Текущее время: 11-Дек 03:19

Часовой пояс: UTC + 3


Вы не можете начинать темы
Вы не можете отвечать на сообщения
Вы не можете редактировать свои сообщения
Вы не можете удалять свои сообщения
Вы не можете голосовать в опросах
Вы не можете прикреплять файлы к сообщениям
Вы не можете скачивать файлы