Уильям Тёрнер / Mr. Turner (Майк Ли / Mike Leigh) [2014, Великобритания, Франция, Германия, драма, биография, история, HDRip] MVO + Original Eng + Sub (Rus, Eng)


 

[Цитировать]

Уильям Тёрнер / Mr. Turner
Страна: Великобритания, Франция, Германия
Жанр: драма, биография, история
Год выпуска: 2014
Продолжительность: 02:30:01
Перевод: Профессиональный (многоголосый закадровый)
Cубтитры: Русские, английские
Оригинальная аудиодорожка: английский
Режиссер: Майк Ли / Mike Leigh
В ролях: Тимоти Сполл (J.M.W. Turner), Пол Джессон (William Turner), Дороти Эткинсон (Hannah Danby), Мэрион Бэйли (Sophia Booth), Карл Джонсон (Mr. Booth), Рут Шин (Sarah Danby), Сэнди Фостер (Evelina), Эми Доусон (Georgiana), Лесли Мэнвилл (Mary Somerville), Мартин Сэвадж (Benjamin Robert Haydon)
Описание: История жизни и творчества британского живописца Уильяма Тёрнера.

Качество видео: HDRip (Исх. BDRip 720p)
Формат видео: AVI
Видео: 720x304 (2.37:1), 23.976 fps, XviD build 73 ~1290 kbps avg, 0.25 bit/pixel
Аудио: 48 kHz, AC3 Dolby Digital, 3/2 (L,C,R,l,r) + LFE ch, ~384.00 kbps avg (Русский)
Аудио 2: 48 kHz, AC3 Dolby Digital, 3/2 (L,C,R,l,r) + LFE ch, ~384.00 kbps avg (Английский)
Формат субтитров: softsub (SRT)

MediaInfo

Общее
Полное имя : S:\Фильмы\Уильям Тёрнер. 2014. HDRip. 2.17 (AleksSin)\Уильям Тёрнер. 2014. HDRip. 2.17 (AleksSin).avi
Формат : AVI
Формат/Информация : Audio Video Interleave
Профиль формата : OpenDML
Размер файла : 2,18 Гбайт
Продолжительность : 2 ч. 30 м.
Общий поток : 2075 Кбит/сек
Программа кодирования : VirtualDubModRus 1.5.10.2 (build 2542/release)
Библиотека кодирования : VirtualDubMod build 2542/release
Видео
Идентификатор : 0
Формат : MPEG-4 Visual
Профиль формата : Advanced Simple@L5
Параметр BVOP формата : 1
Параметр QPel формата : Нет
Параметр GMC формата : Без точки перехода
Параметр матрицы формата : Выборочная
Идентификатор кодека : XVID
Идентификатор кодека/Подсказка : XviD
Продолжительность : 2 ч. 30 м.
Битрейт : 1290 Кбит/сек
Ширина : 720 пикс.
Высота : 304 пикс.
Соотношение сторон : 2,35:1
Частота кадров : 23,976 кадр/сек
Цветовое пространство : YUV
Подвыборка цветности : 4:2:0
Битовая глубина : 8 бит
Тип развёртки : Прогрессивная
Метод сжатия : С потерями
Бит/(Пиксели*Кадры) : 0.246
Размер потока : 1,35 Гбайт (62%)
Библиотека кодирования : XviD 73
Аудио #1
Идентификатор : 1
Формат : AC-3
Формат/Информация : Audio Coding 3
Расширение режима : CM (complete main)
Идентификатор кодека : 2000
Продолжительность : 2 ч. 30 м.
Вид битрейта : Постоянный
Битрейт : 384 Кбит/сек
Каналы : 6 каналов
Расположение каналов : Front: L C R, Side: L R, LFE
Частота : 48,0 КГц
Битовая глубина : 16 бит
Метод сжатия : С потерями
Размер потока : 412 Мбайт (19%)
Выравнивание : Разделение по промежуткам
Продолжительность промежутка : 42 мс. (1,00 видеокадр)
Время предзагрузки промежутка : 500 ms
Аудио #2
Идентификатор : 2
Формат : AC-3
Формат/Информация : Audio Coding 3
Расширение режима : CM (complete main)
Идентификатор кодека : 2000
Продолжительность : 2 ч. 30 м.
Вид битрейта : Постоянный
Битрейт : 384 Кбит/сек
Каналы : 6 каналов
Расположение каналов : Front: L C R, Side: L R, LFE
Частота : 48,0 КГц
Битовая глубина : 16 бит
Метод сжатия : С потерями
Размер потока : 412 Мбайт (19%)
Выравнивание : Разделение по промежуткам
Продолжительность промежутка : 42 мс. (1,00 видеокадр)
Время предзагрузки промежутка : 500 ms

Скриншот c названием фильма

Скриншоты




Показать сообщения:    

Текущее время: 05-Дек 19:33

Часовой пояс: UTC + 3


Вы не можете начинать темы
Вы не можете отвечать на сообщения
Вы не можете редактировать свои сообщения
Вы не можете удалять свои сообщения
Вы не можете голосовать в опросах
Вы не можете прикреплять файлы к сообщениям
Вы не можете скачивать файлы