Уильям Тёрнер / Mr. Turner (Майк Ли / Mike Leigh) [2014, Великобритания, Франция, Германия, драма, биография, история, BDRip-AVC] MVO (iTunes) + Subs (Rus, Eng) + Original Eng


 

[Цитировать]

Уильям Тёрнер
Mr. Turner

Страна: Великобритания, Франция, Германия
Жанр: драма, биография, история
Год выпуска: 2014
Продолжительность: 02:30:01
Перевод: Профессиональный (многоголосый закадровый) iTunes
Cубтитры: русские, английские
Оригинальная аудиодорожка: английский
Режиссер: Майк Ли / Mike Leigh
В ролях: Тимоти Сполл, Пол Джессон, Дороти Эткинсон, Мэрион Бэйли, Карл Джонсон, Рут Шин, Сэнди Фостер, Эми Доусон, Лесли Мэнвилл, Мартин Сэвадж
Описание: История жизни и творчества британского живописца Уильяма Тёрнера.

Сэмпл: http://sendfile.su/1117646
Качество видео: BDRip-AVC [Blu-ray Disc -BLUEBIRD]
Формат видео: MKV
Видео: AVC, 1120 x 480 (2.40:1), 2028 kbps, 23,976 fps, 0.153 bpp
Аудио: AC3, 6ch, 48 kHz, 384 kbps, 16 bit
Аудио 2: AC3, 6ch, 48 kHz, 384 kbps, 16 bit
Формат субтитров: softsub (SRT)

MediaInfo

Уникальный идентификатор : 237199048819689624224919807204255407396 (0xB272E005E9526124BDD7B0330DFD1D24)
Полное имя : F:\Films\Turner\Mr_Turner.mkv
Формат : Matroska
Версия формата : Version 4 / Version 2
Размер файла : 2,93 Гбайт
Продолжительность : 2 ч. 30 м.
Общий поток : 2796 Кбит/сек
Дата кодирования : UTC 2015-05-13 12:57:09
Программа кодирования : mkvmerge v7.7.0 ('Six Voices') 64bit built on Feb 28 2015 23:39:33
Библиотека кодирования : libebml v1.3.1 + libmatroska v1.4.2
_STATISTICS_WRITING_APP : mkvmerge v7.7.0 ('Six Voices') 64bit built on Feb 28 2015 23:39:33
_STATISTICS_WRITING_DATE_UTC : 2015-05-13 12:57:09
_STATISTICS_TAGS : BPS DURATION NUMBER_OF_FRAMES NUMBER_OF_BYTES
DURATION : 02:28:42.496000000
NUMBER_OF_FRAMES : 1796
NUMBER_OF_BYTES : 62293
Видео
Идентификатор : 1
Формат : AVC
Формат/Информация : Advanced Video Codec
Профиль формата : High@L4.1
Параметр CABAC формата : Да
Параметр ReFrames формата : 8 кадров
Идентификатор кодека : V_MPEG4/ISO/AVC
Продолжительность : 2 ч. 30 м.
Битрейт : 2028 Кбит/сек
Ширина : 1152 пикселя
Высота : 480 пикселей
Соотношение сторон : 2,40:1
Режим частоты кадров : Постоянный
Частота кадров : 23,976 кадра/сек
Цветовое пространство : YUV
Субдискретизация насыщенности : 4:2:0
Битовая глубина : 8 бит
Тип развёртки : Прогрессивная
Бит/(Пиксели*Кадры) : 0.153
Размер потока : 2,07 Гбайт (71%)
Библиотека кодирования : x264 core 142 r2431 ac76440
Настройки программы : cabac=1 / ref=8 / deblock=1:-2:-1 / analyse=0x3:0x133 / me=umh / subme=9 / psy=1 / psy_rd=1.00:0.05 / mixed_ref=0 / me_range=36 / chroma_me=1 / trellis=2 / 8x8dct=1 / cqm=0 / deadzone=21,11 / fast_pskip=0 / chroma_qp_offset=-3 / threads=4 / lookahead_threads=1 / sliced_threads=0 / nr=0 / decimate=0 / interlaced=0 / bluray_compat=0 / constrained_intra=0 / bframes=12 / b_pyramid=2 / b_adapt=2 / b_bias=0 / direct=1 / weightb=1 / open_gop=0 / weightp=2 / keyint=240 / keyint_min=23 / scenecut=40 / intra_refresh=0 / rc=2pass / mbtree=0 / bitrate=2028 / ratetol=1.0 / qcomp=0.60 / qpmin=10 / qpmax=69 / qpstep=4 / cplxblur=20.0 / qblur=0.5 / ip_ratio=1.40 / pb_ratio=1.30 / aq=1:1.00
Default : Да
Forced : Нет
Аудио #1
Идентификатор : 2
Формат : AC-3
Формат/Информация : Audio Coding 3
Расширение режима : CM (complete main)
Параметр Endianness формата : Big
Идентификатор кодека : A_AC3
Продолжительность : 2 ч. 30 м.
Вид битрейта : Постоянный
Битрейт : 384 Кбит/сек
Каналы : 6 каналов
Расположение каналов : Front: L C R, Side: L R, LFE
Частота : 48,0 КГц
Битовая глубина : 16 бит
Метод сжатия : С потерями
Размер потока : 412 Мбайт (14%)
Заголовок : Русский, многоголосый закадровый (iTunes)
Язык : Russian
Default : Да
Forced : Нет
Аудио #2
Идентификатор : 3
Формат : AC-3
Формат/Информация : Audio Coding 3
Расширение режима : CM (complete main)
Параметр Endianness формата : Big
Идентификатор кодека : A_AC3
Продолжительность : 2 ч. 30 м.
Вид битрейта : Постоянный
Битрейт : 384 Кбит/сек
Каналы : 6 каналов
Расположение каналов : Front: L C R, Side: L R, LFE
Частота : 48,0 КГц
Битовая глубина : 16 бит
Метод сжатия : С потерями
Размер потока : 412 Мбайт (14%)
Заголовок : Английский
Язык : English
Default : Нет
Forced : Нет
Текст #1
Идентификатор : 4
Формат : UTF-8
Идентификатор кодека : S_TEXT/UTF8
Идентификатор кодека/Информация : UTF-8 Plain Text
Заголовок : Русские
Язык : Russian
Default : Нет
Forced : Нет
Текст #2
Идентификатор : 5
Формат : UTF-8
Идентификатор кодека : S_TEXT/UTF8
Идентификатор кодека/Информация : UTF-8 Plain Text
Заголовок : Английские
Язык : English
Default : Нет
Forced : Нет
Меню
00:00:00.000 : en:00:00:00.000
00:07:45.215 : en:00:07:45.215
00:18:43.581 : en:00:18:43.581
00:25:50.716 : en:00:25:50.716
00:34:23.687 : en:00:34:23.687
00:39:58.646 : en:00:39:58.646
00:45:32.438 : en:00:45:32.438
00:53:04.431 : en:00:53:04.431
01:02:31.164 : en:01:02:31.164
01:10:31.436 : en:01:10:31.436
01:19:53.539 : en:01:19:53.539
01:27:37.669 : en:01:27:37.669
01:34:22.699 : en:01:34:22.699
01:40:36.572 : en:01:40:36.572
01:47:13.927 : en:01:47:13.927
01:55:12.155 : en:01:55:12.155
02:02:26.631 : en:02:02:26.631
02:09:55.413 : en:02:09:55.413
02:15:23.324 : en:02:15:23.324
02:25:49.741 : en:02:25:49.741

Скриншот c названием фильма

Награды

Оскар, 2015 год
Номинации (4):
Лучшая работа оператора, Лучшие костюмы, Лучший саундтрек, Лучшая работа художника-постановщика
Британская академия, 2015 год
Номинации (4):
Лучшая работа оператора (Дик Поуп), Лучшие костюмы, Лучшая работа художника-постановщика (Сьюзи Дейвис, Шарлотта Уоттс), Лучший грим/прически
Каннский кинофестиваль, 2014 год
Победитель (2):
Лучшая мужская роль (Тимоти Сполл), Приз Vulcain Prize
Номинации (1):
Золотая пальмовая ветвь
Европейская киноакадемия, 2014 год
Победитель (1):
Лучшая мужская роль (Тимоти Сполл)

Рейтинг МРАА

R - лицам до 17 лет обязательно присутствие взрослого



Показать сообщения:    

Текущее время: 10-Дек 02:14

Часовой пояс: UTC + 3


Вы не можете начинать темы
Вы не можете отвечать на сообщения
Вы не можете редактировать свои сообщения
Вы не можете удалять свои сообщения
Вы не можете голосовать в опросах
Вы не можете прикреплять файлы к сообщениям
Вы не можете скачивать файлы