Лифт на эшафот / Ascenseur pour l'échafaud / Elevator to the Gallows (Луи Малль / Louis Malle) [1958, Франция, триллер, драма, криминал, HDRip-AVC] MVO


 

[Цитировать]

Лифт на эшафот
Ascenseur pour l'échafaud


Страна: Франция
Жанр: триллер, драма, криминал
Год выпуска: 1958
Продолжительность: 01:31:21
Перевод: Профессиональный (многоголосый закадровый) [Артхаус]
Cубтитры: русские, английские
Оригинальная аудиодорожка: нет
Режиссер:
Луи Малль / Louis Malle
В ролях:
Жанна Моро, Морис Роне, Жорж Пужули, Йори Бертен, Жан Валь, Эльга Андерсен, Сильвен Айзенштейн, Мишлин Бона, Жизель Гранпре, Жаклин Сто.
Описание:
Жена с любовником планируют и осуществляют убийство мужа, но «идеального» преступления не получается. Он забывает на балконе веревку, по которой залез в окно офиса, возвращается за ней, но застревает в лифте.

Релиз:
Автор рипа: Stalker oK
Сэмпл
Качество видео: HDRip-AVC [BDRip 1080p-FiDELiO]
Формат видео: MKV
Видео кодек: AVC
Аудио кодек: AC3
Видео: 2084 Кбит/сек, 738*452 (1,633), в 23,976 кадр/сек, AVC
Аудио: Russian, 192 Кбит/сек, 48,0 КГц, 16 бит, 2 канала(ов), AC-3

MediaInfo

Общее
Уникальный идентификатор : 231208820672751899575355867335997009012 (0xADF132F922C60B65BFC445B7F9C02C74)
Полное имя : L:\рипы\ELEVATOR TO THE GALLOWS.1958\Lift.na.eshafot.1958.HDRip-AVC.MVO.1.45Gb...stalkerok.new-team.mkv
Формат : Matroska
Размер файла : 1,45 Гбайт
Продолжительность : 1 ч. 31 м.
Общий поток : 2278 Кбит/сек
Название фильма : Elevator to the Gallows, 1958 (New-Team) (Rip by Stalker oK)
Дата кодирования : UTC 2015-05-12 21:11:01
Программа кодирования : mkvmerge v7.9.0 ('Birds') 64bit
Библиотека кодирования : libebml v1.3.1 + libmatroska v1.4.2
Видео
Идентификатор : 1
Формат : AVC
Формат/Информация : Advanced Video Codec
Профиль формата : High@L4.1
Параметр CABAC формата : Да
Параметр ReFrames формата : 11 кадры
Идентификатор кодека : V_MPEG4/ISO/AVC
Продолжительность : 1 ч. 31 м.
Битрейт : 2084 Кбит/сек
Ширина : 738 пикс.
Высота : 452 пикс.
Соотношение сторон : 1,633
Частота кадров : 23,976 кадр/сек
Цветовое пространство : YUV
Подвыборка цветности : 4:2:0
Битовая глубина : 8 бит
Тип развёртки : Прогрессивная
Бит/(Пиксели*Кадры) : 0.261
Размер потока : 1,30 Гбайт (90%)
Библиотека кодирования : x264 core 146 r2538 121396c
Настройки программы : cabac=1 / ref=11 / deblock=1:-3:-3 / analyse=0x3:0x133 / me=umh / subme=11 / psy=1 / psy_rd=1.03:0.00 / mixed_ref=1 / me_range=32 / chroma_me=1 / trellis=2 / 8x8dct=1 / cqm=0 / deadzone=21,11 / fast_pskip=0 / chroma_qp_offset=-2 / threads=12 / lookahead_threads=3 / sliced_threads=0 / nr=0 / decimate=0 / interlaced=0 / bluray_compat=0 / constrained_intra=0 / bframes=12 / b_pyramid=2 / b_adapt=2 / b_bias=0 / direct=3 / weightb=1 / open_gop=0 / weightp=2 / keyint=240 / keyint_min=23 / scenecut=40 / intra_refresh=0 / rc_lookahead=40 / rc=2pass / mbtree=0 / bitrate=2084 / ratetol=1.0 / qcomp=0.65 / qpmin=0 / qpmax=69 / qpstep=4 / cplxblur=20.0 / qblur=0.5 / vbv_maxrate=50000 / vbv_bufsize=62500 / nal_hrd=none / filler=0 / ip_ratio=1.20 / pb_ratio=1.10 / aq=3:1.00
Аудио
Идентификатор : 2
Формат : AC-3
Формат/Информация : Audio Coding 3
Расширение режима : CM (complete main)
Идентификатор кодека : A_AC3
Продолжительность : 1 ч. 31 м.
Вид битрейта : Постоянный
Битрейт : 192 Кбит/сек
Канал(ы) : 2 канала(ов)
Расположение каналов : Front: L R
Частота : 48,0 КГц
Битовая глубина : 16 бит
Метод сжатия : С потерями
Размер потока : 125 Мбайт (8%)
Заголовок : MVO-Артхаус @ AC3 2ch. 192 kbps
Язык : Russian
Текст #1
Идентификатор : 3
Формат : UTF-8
Идентификатор кодека : S_TEXT/UTF8
Идентификатор кодека/Информация : UTF-8 Plain Text
Заголовок : aptxayc * ( UTF-8)
Язык : Russian
Текст #2
Идентификатор : 4
Формат : UTF-8
Идентификатор кодека : S_TEXT/UTF8
Идентификатор кодека/Информация : UTF-8 Plain Text
Заголовок : cinema * ( UTF-8)
Язык : Russian
Текст #3
Идентификатор : 5
Формат : UTF-8
Идентификатор кодека : S_TEXT/UTF8
Идентификатор кодека/Информация : UTF-8 Plain Text
Заголовок : * ( UTF-8)
Язык : English
Меню
00:00:00.000 : en:00:00:00.000
00:03:10.106 : en:00:03:10.106
00:13:32.269 : en:00:13:32.269
00:19:30.002 : en:00:19:30.002
00:24:48.528 : en:00:24:48.528
00:28:30.583 : en:00:28:30.583
00:33:59.120 : en:00:33:59.120
00:39:16.562 : en:00:39:16.562
00:45:35.858 : en:00:45:35.858
00:48:36.330 : en:00:48:36.330
00:56:55.120 : en:00:56:55.120
01:03:10.620 : en:01:03:10.620
01:07:12.027 : en:01:07:12.027
01:14:10.320 : en:01:14:10.320
01:19:19.463 : en:01:19:19.463
01:25:58.695 : en:01:25:58.695
01:31:19.098 : en:01:31:19.098

Скриншоты




Показать сообщения:    

Текущее время: 10-Дек 23:31

Часовой пояс: UTC + 3


Вы не можете начинать темы
Вы не можете отвечать на сообщения
Вы не можете редактировать свои сообщения
Вы не можете удалять свои сообщения
Вы не можете голосовать в опросах
Вы не можете прикреплять файлы к сообщениям
Вы не можете скачивать файлы