Блуждающий огонек / Затухающий огонек / Le feu follet / The Fire Within (Луи Маль / Louis Malle) [1963, Франция, драма, DVDRip] MVO


Статистика раздачи [Обновить пиров]
Размер:  744 MB   |    Зарегистрирован:  1 год 1 месяц   |    Скачан:  0 раз

Полного источника не было: Никогда

 
   
 
 
 

[Цитировать]

Затухающий огонек / Le feu follet
Страна: Франция
Жанр: драма
Год выпуска: 1963
Продолжительность: 01:43:31
Перевод: Профессиональный (многоголосый закадровый)
Cубтитры: нет

Режиссер: Луи Маль / Louis Malle
В ролях: Морис Роне, Жанна Моро, Александра Стюарт, Анри Серр, Юбер Дешан, Жан-Поль Мулино, Мона Доль, Пьер Монкорбье, Рене Дюпуа, Бернард Тифани, Бернард Ноэль
Описание: Алену Леруа за тридцать, когда-то он воевал в Алжире, несколько лет был душой парижской богемы, развеселая жизнь, лишь изредка омрачавшаяся приступами меланхолии, привела к алкоголизму. И даже женитьба на богатой красавице-американке ничего не изменила. Пришлось пройти курс лечения в версальской клинике для состоятельных граждан, откуда он, абсолютно здоровый — по мнению врачей, боится выйти. И все-таки выходит, чтобы отправиться по старым адресам…
Качество видео: DVDRip
Формат видео: AVI
Видео: 624x384 (1.63:1), 25 fps, XviD build 73 ~866 kbps avg, 0.14 bit/pixel
Аудио: 48 kHz, MPEG Layer 3, 2 ch, ~128.00 kbps avg

MediaInfo

Общее
Полное имя : H:\Le.feu.follet.1963.dvdrip_[745]_[teko].avi.avi
Формат : AVI
Формат/Информация : Audio Video Interleave
Размер файла : 744 Мбайт
Продолжительность : 1 ч. 43 м.
Общий поток : 1005 Кбит/сек
Программа кодирования : VirtualDubMod 1.5.10.3 | www.virtualdub-fr.org || (build 2550/release)
Библиотека кодирования : VirtualDubMod build 2550/release
Видео
Идентификатор : 0
Формат : MPEG-4 Visual
Профиль формата : Advanced Simple@L5
Параметр BVOP формата : 2
Параметр QPel формата : Нет
Параметр GMC формата : Без точки перехода
Параметр матрицы формата : Выборочная
Идентификатор кодека : XVID
Идентификатор кодека/Подсказка : XviD
Продолжительность : 1 ч. 43 м.
Битрейт : 867 Кбит/сек
Ширина : 624 пикселя
Высота : 384 пикселя
Соотношение сторон : 16:10
Частота кадров : 25,000 кадров/сек
Цветовое пространство : YUV
Субдискретизация насыщенности : 4:2:0
Битовая глубина : 8 бит
Тип развёртки : Прогрессивная
Метод сжатия : С потерями
Бит/(Пиксели*Кадры) : 0.145
Размер потока : 642 Мбайт (86%)
Библиотека кодирования : XviD 73
Аудио
Идентификатор : 1
Формат : MPEG Audio
Версия формата : Version 1
Профиль формата : Layer 3
Идентификатор кодека : 55
Идентификатор кодека/Подсказка : MP3
Продолжительность : 1 ч. 43 м.
Вид битрейта : Постоянный
Битрейт : 128 Кбит/сек
Каналы : 2 канала
Частота : 48,0 КГц
Метод сжатия : С потерями
Размер потока : 94,8 Мбайт (13%)
Выравнивание : Соединение по промежуткам
Продолжительность промежутка : 40 мс. (1,00 видеокадр)
Время предзагрузки промежутка : 504 мс.
Библиотека кодирования : LAME3.98r
Настройки программы : -m s -V 4 -q 2 -lowpass 17 -b 128
[teatrix.ru].t5846.torrent 
Торрент: Зарегистрирован [ 2015-10-10 00:35 ] · FF0017478ACD5F3FB3F96C0697D415438B9532E9

Скачать .torrent

Скачать

15 KB

Статус: проверено
Скачан: 0 раз
Размер: 744 MB
terms.php



Быстрый ответ

Имя:

      
Для отправки сообщений необходимо включить JavaScript
Показать сообщения:    

Текущее время: 06-Дек 11:14

Часовой пояс: UTC + 3


Вы можете начинать темы
Вы можете отвечать на сообщения
Вы не можете редактировать свои сообщения
Вы не можете удалять свои сообщения
Вы не можете голосовать в опросах
Вы не можете прикреплять файлы к сообщениям
Вы можете скачивать файлы