Уильям Тёрнер / Mr. Turner (Майк Ли / Mike Leigh) [2014, Великобритания, Франция, Германия, драма, биография, история, BDRip] MVO


 

[Цитировать]

Уильям Тёрнер / Mr. Turner- Год выпуска: 2014
Страна: Великобритания, Франция, Германия
Жанр: драма, биография, история
Продолжительность: 02:30:01
Перевод: Профессиональный (многоголосый закадровый)
Cубтитры: нет-Режиссер:
Майк Ли / Mike Leigh-В ролях:
Тимоти Сполл (J.M.W. Turner), Пол Джессон (William Turner), Дороти Эткинсон (Hannah Danby), Мэрион Бэйли (Sophia Booth), Карл Джонсон (Mr. Booth), Рут Шин (Sarah Danby), Сэнди Фостер (Evelina), Эми Доусон (Georgiana), Лесли Мэнвилл (Mary Somerville), Мартин Сэвадж (Benjamin Robert Haydon)-Описание:
История жизни и творчества британского живописца Уильяма Тёрнера.- | IMDB | КиноПоиск | Сэмпл |-Качество: BDRip [BDRemux | 1080p | Кинозал]
Формат: AVI
Видео: 720x304 (2.37:1), 23.976 fps, XviD build 73 ~1254 kbps avg, 0.24 bit/pixel
Аудио: 48 kHz, MPEG Layer 3, 2 ch, ~128.00 kbps avg
-

Скриншоты

MediaInfo

General
Complete name                            : D:\William_Turner_2014_BDRip_by_Dalemake.avi
Format                                   : AVI
Format/Info                              : Audio Video Interleave
File size                                : 1.46 GiB
Duration                                 : 2h 30mn
Overall bit rate                         : 1 392 Kbps
Writing application                      : VirtualDubMod 1.5.10.3 | www.virtualdub-fr.org || (build 2550/release)
Writing library                          : VirtualDubMod build 2550/release
Video
ID                                       : 0
Format                                   : MPEG-4 Visual
Format profile                           : Advanced Simple@L5
Format settings, BVOP                    : 1
Format settings, QPel                    : No
Format settings, GMC                     : No warppoints
Format settings, Matrix                  : Custom
Codec ID                                 : XVID
Codec ID/Hint                            : XviD
Duration                                 : 2h 30mn
Bit rate                                 : 1 254 Kbps
Width                                    : 720 pixels
Height                                   : 304 pixels
Display aspect ratio                     : 2.35:1
Frame rate                               : 23.976 fps
Color space                              : YUV
Chroma subsampling                       : 4:2:0
Bit depth                                : 8 bits
Scan type                                : Progressive
Compression mode                         : Lossy
Bits/(Pixel*Frame)                       : 0.239
Stream size                              : 1.31 GiB (90%)
Writing library                          : XviD 73
Audio
ID                                       : 1
Format                                   : MPEG Audio
Format version                           : Version 1
Format profile                           : Layer 3
Codec ID                                 : 55
Codec ID/Hint                            : MP3
Duration                                 : 2h 30mn
Bit rate mode                            : Constant
Bit rate                                 : 128 Kbps
Channel(s)                               : 2 channels
Sampling rate                            : 48.0 KHz
Compression mode                         : Lossy
Stream size                              : 137 MiB (9%)
Alignment                                : Aligned on interleaves
Interleave, duration                     : 42 ms (1.00 video frame)
Interleave, preload duration             : 504 ms
Writing library                          : LAME3.99r
Encoding settings                        : -m s -V 4 -q 2 -lowpass 17 -b 128
-



Показать сообщения:    

Текущее время: 07-Дек 21:20

Часовой пояс: UTC + 3


Вы не можете начинать темы
Вы не можете отвечать на сообщения
Вы не можете редактировать свои сообщения
Вы не можете удалять свои сообщения
Вы не можете голосовать в опросах
Вы не можете прикреплять файлы к сообщениям
Вы не можете скачивать файлы