Человек-слон / The Elephant Man (Дэвид Линч / David Lynch) [1980, США, драма, BDRip] AVO (Сергей Визгунов) + Original Eng


 

[Цитировать]

Человек-слон / The Elephant Man- Страна: США
Жанр: драма
Год выпуска: 1980
Продолжительность: 02:03:40-Перевод: Авторский (одноголосый закадровый) Сергей Визгунов
Cубтитры: нет
Оригинальная аудиодорожка: английский-Режиссер: Дэвид Линч / David Lynch
В ролях: Энтони Хопкинс, Джон Херт, Энн Бэнкрофт, Джон Гилгуд, Венди Хиллер, Фредди Джонс, Майкл Элфик, Декстер Флетчер, Кристофер Де Вор-Описание: Это правдивая и печальная история жизни реально существовавшего в 19 веке человека, Джона Меррика, страдавшего редчайшей болезнью, вызывавшей чудовищные деформации тела.
Молодой хирург Тривес, увидев это несчастное и забитое существо в балагане, выкупает его у хозяина из чисто научного интереса, но с удивлением обнаруживает в нем человека интеллектуально развитого и духовного. Профессиональный интерес сменяется состраданием, феномен становится моден в высшем свете, сама королева благословляет оставить его в больнице навсегда…-Сэмпл-Качество видео: BDRip
Формат видео: AVI
Видео: 720x304 (2.37:1), 24 fps, XviD build 65 ~2077 kbps avg, 0.40 bit/pixel
Аудио: 48 kHz, AC3 Dolby Digital, 2/0 (L,R) ch, ~224 kbps
Аудио 2: 48 kHz, AC3 Dolby Digital, 2/0 (L,R) ch, ~192 kbps

Доп. информация

За видеоряд спасибо Beesmark от Hellywood c рутора.
за дорогу с Визгуновым спасибо Gennady 2013, Dr. Destructo, Sonny Black.

MediaInfo

General
Complete name : E:\Downloads\Elephant.Man.Vizgunov.avi
Format : AVI
Format/Info : Audio Video Interleave
Format profile : OpenDML
File size : 2.16 GiB
Duration : 2h 3mn
Overall bit rate : 2 497 Kbps
Movie name : Chelovek.Slon.1980.Rus.BDRip.XviD.AC3.-HELLYWOOD
Director : Beesmark
Writing application : VirtualDubMod 1.5.10.2 (build 2540/release)
Writing library : VirtualDubMod build 2540/release
Video
ID : 0
Format : MPEG-4 Visual
Format profile : Advanced Simple@L5
Format settings, BVOP : 2
Format settings, QPel : No
Format settings, GMC : No warppoints
Format settings, Matrix : Custom
Codec ID : XVID
Codec ID/Hint : XviD
Duration : 2h 3mn
Bit rate : 2 067 Kbps
Width : 720 pixels
Height : 304 pixels
Display aspect ratio : 2.35:1
Frame rate : 24.000 fps
Color space : YUV
Chroma subsampling : 4:2:0
Bit depth : 8 bits
Scan type : Progressive
Compression mode : Lossy
Bits/(Pixel*Frame) : 0.393
Stream size : 1.79 GiB (83%)
Writing library : XviD 65
Audio #1
ID : 1
Format : AC-3
Format/Info : Audio Coding 3
Mode extension : CM (complete main)
Format settings, Endianness : Big
Codec ID : 2000
Duration : 2h 3mn
Bit rate mode : Constant
Bit rate : 224 Kbps
Channel(s) : 2 channels
Channel positions : Front: L R
Sampling rate : 48.0 KHz
Bit depth : 16 bits
Compression mode : Lossy
Stream size : 198 MiB (9%)
Alignment : Split accross interleaves
Interleave, duration : 42 ms (1.00 video frame)
Interleave, preload duration : 500 ms
Audio #2
ID : 2
Format : AC-3
Format/Info : Audio Coding 3
Mode extension : CM (complete main)
Format settings, Endianness : Big
Codec ID : 2000
Duration : 2h 1mn
Bit rate mode : Constant
Bit rate : 192 Kbps
Channel(s) : 2 channels
Channel positions : Front: L R
Sampling rate : 48.0 KHz
Bit depth : 16 bits
Compression mode : Lossy
Stream size : 167 MiB (8%)
Alignment : Split accross interleaves
Interleave, duration : 42 ms (1.02 video frame)
Interleave, preload duration : 500 ms

Скриншот c названием фильма

Скриншоты




Показать сообщения:    

Текущее время: 04-Дек 21:24

Часовой пояс: UTC + 3


Вы не можете начинать темы
Вы не можете отвечать на сообщения
Вы не можете редактировать свои сообщения
Вы не можете удалять свои сообщения
Вы не можете голосовать в опросах
Вы не можете прикреплять файлы к сообщениям
Вы не можете скачивать файлы