Уна / Una (Милош "Миша" Радивоевич / Milos 'Misa' Radivojevic) [1984, Югославия, мелодрама, драма, DVDRip] AVO (Алексеев) + Original


Статистика раздачи [Обновить пиров]
Размер:  1.37 GB   |    Зарегистрирован:  1 год 1 месяц   |    Скачан:  0 раз

Полного источника не было: 5 месяцев 14 дней

 
   
 
 
 

[Цитировать]

Уна / Una
Страна: Югославия
Жанр: Мелодрама, драма
Год выпуска: 1984
Продолжительность: 1:36:07
Перевод: Авторский (одноголосый закадровый) Антон Алексеев
Cубтитры: нет
Оригинальная аудиодорожка: сербская
Режиссер: Милош "Миша" Радивоевич / Milos 'Misa' Radivojevic
В ролях: Соня Савич, Раде Шербеджия, Милена Дравич, Петар Краль
Описание: Молодая и очаровательная студентка журналистского факультета Уна планирует взять интервью для студенческой газеты у профессора кафедры массовой информации Мишеля Бабича. Профессор Бабич имеет репутацию свободномыслящего интеллектуала, он харизматичен, его лекции самые посещаемые на факультете, он успешно издаётся и приглашается на ведущие европейские конференции. Но во многом из-за его неординарных, а подчас и радикальных на взглядов на социологию и общество в целом, он приобретает множество недоброжелателей в бюрократических кругах университета. Зам. декана факультета предлагает Уне сделку - она использует своё интервью как повод и собирает компрометирующий материал на профессора, а он в свою очередь устроит досрочный выхода её парня из тюрьмы. После нескольких встреч с Уной, профессор начинает сходить по ней с ума, и с каждым разом Уне всё сложнее сделать свой выбор...

Доп. информация:

Фильм снят по одноимённой книге известнейшего югославского и сербского писателя Момо Капора. По контракту с издательством, как автор книги, он имел приоритетное право написания сценария, но в итоге отказался от любого своего участия в адаптации "Уны" для кино, несмотря на все уговоры режиссёра. Впоследствии сценарий был написан Небойшей Пайкичем ("Многообещающий парень", "Душитель против душителя") и самим Мишей Радивоевичем.
Сэмпл: http://multi-up.com/1047955
Качество видео: DVDRip
Формат видео: AVI
Видео: XviD, 704x432, 16:10, 25.000 fps, 1 645 Kbps
Аудио: AC3, 48.0 KHz, 192 Kbps, 2 channels, L R (русская)
Аудио 2: AC3, 48.0 KHz, 192 Kbps, 2 channels, L R (сербская)

MediaInfo

General
Complete name : ./Рабочий стол/Buffer/DRM_UNA.avi
Format : AVI
Format/Info : Audio Video Interleave
File size : 1.37 GiB
Duration : 1h 36mn
Overall bit rate : 2 038 Kbps
Writing application : VirtualDubMod 1.5.4.1 (build 2178/release)
Writing library : VirtualDubMod build 2178/release
Video
ID : 0
Format : MPEG-4 Visual
Format profile : Advanced Simple@L5
Format settings, BVOP : 1
Format settings, QPel : No
Format settings, GMC : No warppoints
Format settings, Matrix : Custom
Codec ID : XVID
Codec ID/Hint : XviD
Duration : 1h 36mn
Bit rate : 1 645 Kbps
Width : 704 pixels
Height : 432 pixels
Display aspect ratio : 16:10
Frame rate : 25.000 fps
Color space : YUV
Chroma subsampling : 4:2:0
Bit depth : 8 bits
Scan type : Progressive
Compression mode : Lossy
Bits/(Pixel*Frame) : 0.216
Stream size : 1.10 GiB (81%)
Writing library : XviD 73
Audio #1
ID : 1
Format : AC-3
Format/Info : Audio Coding 3
Mode extension : CM (complete main)
Format settings, Endianness : Big
Codec ID : 2000
Duration : 1h 36mn
Bit rate mode : Constant
Bit rate : 192 Kbps
Channel(s) : 2 channels
Channel positions : Front: L R
Sampling rate : 48.0 KHz
Bit depth : 16 bits
Compression mode : Lossy
Stream size : 132 MiB (9%)
Alignment : Split accross interleaves
Interleave, duration : 96 ms (2.40 video frames)
Interleave, preload duration : 96 ms
Language : Russian
Audio #2
ID : 2
Format : AC-3
Format/Info : Audio Coding 3
Format profile : Dolby Digital
Mode extension : CM (complete main)
Format settings, Endianness : Big
Codec ID : 2000
Duration : 1h 36mn
Bit rate mode : Constant
Bit rate : 192 Kbps
Channel(s) : 2 channels
Channel positions : Front: L R
Sampling rate : 48.0 KHz
Bit depth : 16 bits
Compression mode : Lossy
Stream size : 132 MiB (9%)
Alignment : Split accross interleaves
Interleave, duration : 96 ms (2.40 video frames)
Interleave, preload duration : 96 ms
Language : Serbian

Скриншот c названием фильма

Скриншоты



Раздача DVD: [http://teatrix.ru/viewtopic.php?t=7137
[teatrix.ru].t5850.torrent 
Торрент: Зарегистрирован [ 2015-10-10 00:35 ] · EA4CC8562E9447C2FC124557EF97345AB973D4BB

Скачать .torrent

Скачать

28 KB

Статус: проверено
Скачан: 0 раз
Размер: 1.37 GB
terms.php



Быстрый ответ

Имя:

      
Для отправки сообщений необходимо включить JavaScript
Показать сообщения:    

Текущее время: 07-Дек 13:39

Часовой пояс: UTC + 3


Вы можете начинать темы
Вы можете отвечать на сообщения
Вы не можете редактировать свои сообщения
Вы не можете удалять свои сообщения
Вы не можете голосовать в опросах
Вы не можете прикреплять файлы к сообщениям
Вы можете скачивать файлы