Григри / Grigris / Grisgris (Махамат-Салех Харун / Mahamat-Saleh Haroun) [2013, Чад, Франция, драма, DVDRip] Sub Rus + Original Fre


Статистика раздачи [Обновить пиров]
Размер:  1.46 GB   |    Зарегистрирован:  1 год 1 месяц   |    Скачан:  0 раз

Полного источника не было: Никогда

 
   
 
 
 

[Цитировать]

Григри / Grigris-Страна: Чад, Франция
Жанр: драма
Год выпуска: 2013
Продолжительность: 01:39:58-Перевод: Субтитры (by sonnyb)
Cубтитры: русские
Оригинальная аудиодорожка: французский-Режиссер: Махамат-Салех Харун (Кричащий человек)
В ролях: Сулейман Деме, Сирил Гуи, Анаис Монори, Мариам Монори, Мариус Йелоло, Юссуф Джаро, Том Харун-Описание: Несмотря на парализованную ногу, Григри мечтает быть танцором. Но его мечтам не суждено воплотиться в жизнь - родной дядя, который поддерживал юношу, тяжело заболел. Чтобы спасти его, Григри решает работать на контрабандистов…-Доп. информация:
Идея релиза и рип: exvet
Перевод: sonnyb
Редактура: alex-kin-Качество видео: DVDRip
Формат видео: AVI
Видео: 720x304 (2.37:1), 23.976 fps, XviD build 50 ~1634 kbps avg, 0.31 bit/pixel
Аудио: 48 kHz, AC3 Dolby Digital, 3/2 (L,C,R,l,r) + LFE ch, ~448 kbps
Формат субтитров: softsub (SRT)

Пример субтитров

122
00:27:30,048 --> 00:27:31,675
Всё будет хорошо.
123
00:27:38,957 --> 00:27:41,152
Вот рецепт.
124
00:27:41,259 --> 00:27:43,056
У меня не осталось ни гроша.
125
00:27:57,542 --> 00:27:59,772
Идём, ну же.
126
00:28:01,880 --> 00:28:04,246
Что случилось, детка? Идём же.
127
00:28:04,349 --> 00:28:08,342
Раньше ты считала меня потрясным.
128
00:28:08,453 --> 00:28:11,251
Почему ты больше не хочешь меня?
Перестань!
129
00:28:11,356 --> 00:28:13,449
Хочешь, чтобы я умолял тебя?
130
00:28:13,558 --> 00:28:16,527
Дорогая. Идём же.
131
00:28:18,663 --> 00:28:20,130
Я не хочу.
132
00:28:20,231 --> 00:28:22,131
Что случилось?
133
00:28:22,233 --> 00:28:24,394
Идём, дорогая!
134
00:28:26,204 --> 00:28:28,104
Эй, что такое?
135
00:28:29,674 --> 00:28:31,164
Остынь!
136
00:28:32,377 --> 00:28:35,278
Что случилось? Остынь же!
137
00:28:35,380 --> 00:28:37,314
Я не хочу драться!
138
00:28:38,483 --> 00:28:39,882
Прояви немного уважения!
139
00:28:58,336 --> 00:29:01,828
Григри, идём потанцуем вдвоём?
140
00:29:01,940 --> 00:29:04,204
Хочешь поехать со мной, а?
141
00:29:04,609 --> 00:29:06,600
Знаешь, ты мне нравишься.
142
00:29:06,711 --> 00:29:08,474
Ты мне нравишься.
143
00:29:08,580 --> 00:29:12,949
Ты не такой, как остальные.
Ты не такой, как все остальные.
144
00:29:13,051 --> 00:29:14,916
Ты другой.
145
00:29:15,019 --> 00:29:17,010
Мне нравится, что ты другой.

MediaInfo

Формат : AVI
Формат/Информация : Audio Video Interleave
Размер файла : 1,46 Гбайт
Продолжительность : 1 ч. 39 м.
Общий поток : 2092 Кбит/сек
Программа кодирования : VirtualDubMod 1.5.10.3 | www.virtualdub-fr.org || (build 2550/release)
Библиотека кодирования : VirtualDubMod build 2550/release
Видео
Идентификатор : 0
Формат : MPEG-4 Visual
Профиль формата : Advanced Simple@L5
Параметр BVOP формата : 1
Параметр QPel формата : Нет
Параметр GMC формата : Без точки перехода
Параметр матрицы формата : Default (MPEG)
Идентификатор кодека : XVID
Идентификатор кодека/Подсказка : XviD
Продолжительность : 1 ч. 39 м.
Битрейт : 1634 Кбит/сек
Ширина : 720 пикс.
Высота : 304 пикс.
Соотношение сторон : 2,35:1
Частота кадров : 23,976 кадр/сек
Цветовое пространство : YUV
Подвыборка цветности : 4:2:0
Битовая глубина : 8 бит
Тип развёртки : Прогрессивная
Метод сжатия : С потерями
Бит/(Пиксели*Кадры) : 0.311
Размер потока : 1,14 Гбайт (78%)
Библиотека кодирования : XviD 1.2.1 (UTC 2008-12-04)
Аудио
Идентификатор : 1
Формат : AC-3
Формат/Информация : Audio Coding 3
Расширение режима : CM (complete main)
Идентификатор кодека : 2000
Продолжительность : 1 ч. 39 м.
Вид битрейта : Постоянный
Битрейт : 448 Кбит/сек
Каналы : 6 каналов
Расположение каналов : Front: L C R, Side: L R, LFE
Частота : 48,0 КГц
Битовая глубина : 16 бит
Метод сжатия : С потерями
Размер потока : 320 Мбайт (21%)
Выравнивание : Разделение по промежуткам
Продолжительность промежутка : 42 мс. (1,00 видеокадр)
Время предзагрузки промежутка : 500 ms

Скриншоты

[teatrix.ru].t5852.torrent 
Торрент: Зарегистрирован [ 2015-10-10 00:35 ] · 01B9E52B95C74C345DDD48CDB484C381AA9F0D97

Скачать .torrent

Скачать

15 KB

Статус: проверено
Скачан: 0 раз
Размер: 1.46 GB
terms.php



Быстрый ответ

Имя:

      
Для отправки сообщений необходимо включить JavaScript
Показать сообщения:    

Текущее время: 03-Дек 14:38

Часовой пояс: UTC + 3


Вы можете начинать темы
Вы можете отвечать на сообщения
Вы не можете редактировать свои сообщения
Вы не можете удалять свои сообщения
Вы не можете голосовать в опросах
Вы не можете прикреплять файлы к сообщениям
Вы можете скачивать файлы