Красавчик Серж / Le beau Serge (Клод Шаброль / Claude Chabrol) [1958, Франция, драма, BDRip-AVC ] MVO (СВ-Дубль) + Sub Rus, Eng + Original Fre


 

[Цитировать]

Красавчик СержLe beau Serge- Страна: Франция
Жанр: драма
Год выпуска: 1958
Продолжительность: 01:39:26-Перевод: Профессиональный (многоголосый, закадровый)
Оригинальная дорожка: Французский
Субтитры: русские ('aglaya'), английские
Режиссер: Клод Шаброль / Claude Chabrol
В ролях:
Жерар Блен (Serge), Жан-Клод Бриали (François Baillou), Мишель Мериц (Yvonne), Бернадетт Лафон (Marie), Клод Серваль (The priest), Джинн Перез (Madame Chaunier), Эдмон Бошан (Glomaud), Андре Дино (Michel, the doctor), Мишель Крёз (The baker), Клод Шаброль (La Truffe), Филипп де Брока (Jacques Rivette de la Chasuble), Christine Dourdet (в титрах не указана)-Описание: В 1959 году в коммерческий прокат выходят первые фильмы «новой волны» - «Кузены» и «Красавчик Серж» Клода Шаброля, «Хиросима, моя любовь» Алена Рене и «400 ударов» Трюффо. Благодаря этим успешным дебютам будто прорвало плотину, и в кинематограф хлынула свежая вода – за четыре года существования «волны» около сотни молодых режиссеров выпустили на экраны по первому полнометражному фильму. Началом французской новой волны было, в некоторой степени, упражнение кинокритиков из журнала Cahiers du sinema в воплощении их философии и теорий в действительность, путём создания собственных фильмов. «Красавчик Серж» Клода Шаброля (1958) считается первым фильмом новой волны.
Первый свой фильм «Красавчик Серж» начинающий режиссер снял почти интуитивно, не имея никакого специального образования и кинематографического опыта. Риск был тем более велик, что лента снималась на личные деньги Шаброля, которые он получил в наследство. «Когда я снимал свой первый фильм — «Красавчик Серж», — мне было двадцать девять лет, и никогда прежде я не бывал на киностудии. Мои познания о кино были чисто теоретическими», - рассказывал он позже в одном из интервью. Однако отсутствие опыта не помешали «Красавчику Сержу» стать настоящей сенсацией – своеобразным манифестом нового кинодвижения. Острокритичный по отношению к буржуазной действительности, абсолютно некоммерческий фильм вызвал тем не менее большой интерес, как и следующая картина «Кузены» (Les Cousins, 1959). В обоих фильмах проявились черты дальнейшей творческой манеры режиссера — острый сюжет, критика буржуазного уклада жизни, холодная мизантропия в изображении провинции.- -Источник: BD-Remux Uralmix
Качество: BDRip-AVC | Сэмпл | Criterion Collection #580
Контейнер: MKV
Видео: AVC x264, 708x530 (1.336), 23.976 fps, 3 800 Kbps, 0.422 bit/pixel
Аудио №1: AC3, 48.0 KHz, 192 Kbps, 2 channels (MVO, СВ-Дубль)
Аудио №2: AC3, 48.0 KHz, 192 Kbps, 1 channel (Оригинал)
Формат субтитров: softsub (SRT)
Навигация по главам: есть-

x264 / MediaInfo

-[Information] [03.05.2015 23:01:18] x264 [info]: frame I:694   Avg QP:18.00  size: 67590
-[Information] [03.05.2015 23:01:18] x264 [info]: frame P:28958 Avg QP:20.78  size: 32329
-[Information] [03.05.2015 23:01:18] x264 [info]: frame B:113389 Avg QP:23.40  size: 16322
General
Unique ID : 181851800756238238446124701558101113910 (0x88CF620291F849959B56AFB97085FC36)
Complete name : E:\Le.Beau.Serge.1958.bdrip-avc.mkv
Format : Matroska
Format version : Version 4 / Version 2
File size : 2.91 GiB
Duration : 1h 39mn
Overall bit rate : 4 186 Kbps
Movie name : Красавчик Серж / Le Beau Serge (1985) // egiko'z rip // your way
Encoded by : egiko
Encoded date : UTC 2015-05-10 11:09:50
Writing application : mkvmerge v7.8.0 ('River Man') 64bit built on Mar 27 2015 16:31:37
Writing library : libebml v1.3.1 + libmatroska v1.4.2
Attachements : cover.jpg
DIRECTOR : Claude Chabrol
DATE_RELEASED : 1958
COMMENT : Criterion Collection #580
DURATION : 01:38:04.253000000
NUMBER_OF_FRAMES : 959
NUMBER_OF_BYTES : 29646
_STATISTICS_WRITING_APP : mkvmerge v7.8.0 ('River Man') 64bit built on Mar 27 2015 16:31:37
_STATISTICS_WRITING_DATE_UTC : 2015-05-10 11:09:50
_STATISTICS_TAGS : BPS DURATION NUMBER_OF_FRAMES NUMBER_OF_BYTES
Video
ID : 1
Format : AVC
Format/Info : Advanced Video Codec
Format profile : High@L4.1
Format settings, CABAC : Yes
Format settings, ReFrames : 10 frames
Codec ID : V_MPEG4/ISO/AVC
Duration : 1h 39mn
Bit rate : 3 800 Kbps
Width : 708 pixels
Height : 530 pixels
Display aspect ratio : 4:3
Frame rate mode : Constant
Frame rate : 23.976 fps
Color space : YUV
Chroma subsampling : 4:2:0
Bit depth : 8 bits
Scan type : Progressive
Bits/(Pixel*Frame) : 0.422
Stream size : 2.58 GiB (89%)
Title : Красавчик Серж / Le Beau Serge
Writing library : x264 core 146 r2538kMod 121396c
Encoding settings : cabac=1 / ref=10 / deblock=1:-1:-1 / analyse=0x3:0x113 / me=umh / subme=10 / psy=1 / fade_compensate=0.00 / psy_rd=1.00:0.15 / mixed_ref=1 / me_range=32 / chroma_me=1 / trellis=2 / 8x8dct=1 / cqm=0 / deadzone=21,11 / fast_pskip=0 / chroma_qp_offset=-3 / threads=6 / lookahead_threads=1 / sliced_threads=0 / nr=0 / decimate=1 / interlaced=0 / bluray_compat=0 / constrained_intra=0 / fgo=0 / bframes=12 / b_pyramid=2 / b_adapt=2 / b_bias=0 / direct=3 / weightb=1 / open_gop=0 / weightp=2 / keyint=240 / keyint_min=23 / scenecut=40 / intra_refresh=0 / rc_lookahead=60 / rc=2pass / mbtree=0 / bitrate=3800 / ratetol=1.0 / qcomp=0.60 / qpmin=0 / qpmax=69 / qpstep=4 / cplxblur=20.0 / qblur=0.5 / vbv_maxrate=62500 / vbv_bufsize=78125 / nal_hrd=none / filler=0 / ip_ratio=1.40 / pb_ratio=1.30 / aq=1:1.00
Language : French
Default : Yes
Forced : No
DURATION : 01:39:26.002000000
NUMBER_OF_FRAMES : 143041
NUMBER_OF_BYTES : 2833813991
_STATISTICS_WRITING_APP : mkvmerge v7.8.0 ('River Man') 64bit built on Mar 27 2015 16:31:37
_STATISTICS_WRITING_DATE_UTC : 2015-05-10 11:09:50
_STATISTICS_TAGS : BPS DURATION NUMBER_OF_FRAMES NUMBER_OF_BYTES
Audio #1
ID : 2
Format : AC-3
Format/Info : Audio Coding 3
Mode extension : CM (complete main)
Format settings, Endianness : Big
Codec ID : A_AC3
Duration : 1h 39mn
Bit rate mode : Constant
Bit rate : 192 Kbps
Channel(s) : 2 channels
Channel positions : Front: L R
Sampling rate : 48.0 KHz
Bit depth : 16 bits
Compression mode : Lossy
Stream size : 137 MiB (5%)
Title : MVO, СВ-Дубль
Language : Russian
Default : Yes
Forced : No
Audio #2
ID : 3
Format : AC-3
Format/Info : Audio Coding 3
Mode extension : CM (complete main)
Format settings, Endianness : Big
Codec ID : A_AC3
Duration : 1h 39mn
Bit rate mode : Constant
Bit rate : 192 Kbps
Channel(s) : 1 channel
Channel positions : Front: C
Sampling rate : 48.0 KHz
Bit depth : 16 bits
Compression mode : Lossy
Stream size : 137 MiB (5%)
Title : Оригинал
Language : French
Default : No
Forced : No
Text #1
ID : 4
Format : UTF-8
Codec ID : S_TEXT/UTF8
Codec ID/Info : UTF-8 Plain Text
Title : русские ('aglaya')
Language : Russian
Default : Yes
Forced : No
Text #2
ID : 5
Format : UTF-8
Codec ID : S_TEXT/UTF8
Codec ID/Info : UTF-8 Plain Text
Language : English
Default : No
Forced : No
Menu
00:00:00.000 : en:00:00:00.000
00:09:17.682 : en:00:09:17.682
00:12:58.778 : en:00:12:58.778
00:15:57.957 : en:00:15:57.957
00:22:20.839 : en:00:22:20.839
00:28:29.791 : en:00:28:29.791
00:33:55.325 : en:00:33:55.325
00:39:50.972 : en:00:39:50.972
00:42:41.100 : en:00:42:41.100
00:46:00.758 : en:00:46:00.758
00:50:07.546 : en:00:50:07.546
00:54:36.273 : en:00:54:36.273
00:59:15.719 : en:00:59:15.719
01:06:20.268 : en:01:06:20.268
01:11:59.857 : en:01:11:59.857
01:16:11.567 : en:01:16:11.567
01:21:23.545 : en:01:21:23.545
01:24:53.088 : en:01:24:53.088
01:32:28.877 : en:01:32:28.877



Показать сообщения:    

Текущее время: 04-Дек 13:13

Часовой пояс: UTC + 3


Вы не можете начинать темы
Вы не можете отвечать на сообщения
Вы не можете редактировать свои сообщения
Вы не можете удалять свои сообщения
Вы не можете голосовать в опросах
Вы не можете прикреплять файлы к сообщениям
Вы не можете скачивать файлы