Белый Бог / Fehér isten / White God (Корнел Мундруцо / Kornél Mundruczó) [2014, Венгрия, Германия, Швеция, драма, WEBRip ] MVO


Статистика раздачи [Обновить пиров]
Размер:  747 MB   |    Зарегистрирован:  1 год 1 месяц   |    Скачан:  0 раз

Полного источника не было: Никогда

 
   
 
 
 

[Цитировать]

~ Белый Бог / Feher isten / White God ~- Страна: Венгрия, Германия, Швеция
Жанр:кдрама
Продолжительность: 01:56:01
Год выпуска: 2014
Перевод: : Профессиональный (многоголосый закадровый)
Оригинальная аудиодорожка: нет
Субтитры: нет--Режиссёр: Корнел Мундруцо / Kornel Mundruczo--В ролях: Жофия Псотта / Zsofia Psotta, Шандор Жотер / Sandor Zsoter, Лили Хорват / Lili Horvath, Сабольч Туроци / Szabolcs Thuroczy, Лили Монори / Lili Monori, Гергей Банки / Gergely Banki, Тамаш Полгар / Tamas Polgar, Карой Ашер / Karoly Ascher, Эрика Боднар / Erika Bodnar
в главной собачьей роли - собаки близнецы, метисы лабрадора — Люк и Боди
-Описание: Мать тринадцатилетней Лили уезжает работать в Австралию и вынуждена на время оставить дочь на попечение бывшего мужа. Давно отвыкший от ребенка отец не слишком жалует внезапно свалившуюся на плечи обузу, но еще большее его негодование вызывает пес Лили по кличке Хаген. Собаке требуется уход, ее нужно зарегистрировать в муниципалитете и заплатить налог – мужчина не готов к этому. После пары выходок дочери отец, невзирая на протесты, избавляется от пса. Не привыкший к одиночеству и уличной жизни Хаген преодолевает множество передряг, пока не попадает в приют, где становится лидером сопротивления собак против жестокости человека. Положить конец начинающейся войне людей и собак сможет любовь Лили...--Доп. информация: Данный рип найден в сети. Релиз- UNIONGANG - ELEKTRI4KA
КиноПоиск: 7.019 (435) IMDb: 7,0 (2 488 )
СЭМПЛ http://multi-up.com/1047877-Качество: WEBRip
Формат: AVI
Видео: XVID, 763 Kbps, 720 x 304, 2.35:1, 25.000 fps
Аудио 1: AC3, 2 ch, 128 kbps, 48 kHz | RUS MVO
-

MediaInfo

General
Complete name : White God. 2014.avi
Format : AVI
Format/Info : Audio Video Interleave
File size : 747 MiB
Duration : 1h 56mn
Overall bit rate : 900 Kbps
Video #0
ID : 0
Format : MPEG-4 Visual
Format profile : Advanced Simple@L5
Format settings, BVOP : 2
Format settings, QPel : No
Format settings, GMC : No warppoints
Format settings, Matrix : Default (MPEG)
Codec ID : XVID
Codec ID/Hint : XviD
Duration : 1h 56mn
Bit rate : 763 Kbps
Width : 720 pixels
Height : 304 pixels
Display aspect ratio : 2.35:1
Frame rate : 25.000 fps
Color space : YUV
Chroma subsampling : 4:2:0
Bit depth : 8 bits
Scan type : Progressive
Compression mode : Lossy
Bits/(Pixel*Frame) : 0.139
Stream size : 633 MiB (85%)
Writing library : XviD 73
Audio #1
ID : 1
Format : AC-3
Format/Info : Audio Coding 3
Mode extension : CM (complete main)
Codec ID : 2000
Duration : 1h 56mn
Bit rate mode : Constant
Bit rate : 128 Kbps
Channel(s) : 2 channels
Channel positions : Front: L R
Sampling rate : 48.0 KHz
Bit depth : 16 bits
Compression mode : Lossy
Stream size : 106 MiB (14%)
Alignment : Split accross interleaves
Interleave, duration : 40 ms (1.00 video frame)
Interleave, preload duration : 500 ms

Скриншоты


[teatrix.ru].t5855.torrent 
Торрент: Зарегистрирован [ 2015-10-10 00:35 ] · 246CEAC3BAE30C058BAACD1E465158FDD81EED64

Скачать .torrent

Скачать

15 KB

Статус: проверено
Скачан: 0 раз
Размер: 747 MB
terms.php



Быстрый ответ

Имя:

      
Для отправки сообщений необходимо включить JavaScript
Показать сообщения:    

Текущее время: 06-Дек 22:54

Часовой пояс: UTC + 3


Вы можете начинать темы
Вы можете отвечать на сообщения
Вы не можете редактировать свои сообщения
Вы не можете удалять свои сообщения
Вы не можете голосовать в опросах
Вы не можете прикреплять файлы к сообщениям
Вы можете скачивать файлы