Тот, кто придет / L'uomo che verra / L'uomo che verrà (Джорджо Диритти / Giorgio Diritti) [2009, Италия, драма, военный, история, DVDRip-AVC] VO + Sub (Rus, Eng)


Статистика раздачи [Обновить пиров]
Размер:  2.18 GB   |    Зарегистрирован:  1 год 1 месяц   |    Скачан:  0 раз

Полного источника не было: Никогда

 
   
 
 
 

[Цитировать]

Тот, кто придет / L'uomo che verra / L'uomo che verrà
Страна: Италия
Жанр: драма, военный, история
Год выпуска: 2009
Продолжительность: 01:54:25
Перевод: Одноголосый закадровый viare по субтитрам merrzavka
Cубтитры: русские, английские
Оригинальная аудиодорожка: нет
Навигация по главам: есть
Режиссер: Джорджо Диритти / Giorgio Diritti
В ролях: Майя Санса, Альба Рорвакер, Элеонора Маццони, Claudio Casadio, Грета Дзукки Монтанари, Вито, Orfeo Orlando, Diego Pagotto, Бернардо Болоньези, Stefano Croci
О фильме: Зима 1943 года. Мартина — восьмилетняя девочка из бедной крестьянской семьи, живущей в деревушке на склоне горы Монте Соле. Несколько лет назад она онемела после смерти новорожденного братика. И вот мать Мартины опять носит под сердцем ребенка, и девочка живет в ожидании нового братика или сестрички. А война подступает вплотную: в горах орудует отряд партизана по кличке Волк, все ближе — нацисты, жизнь — все тяжелее. В ночь с 28 на 29 сентября 1944 года ребенок появляется на свет, но в ту же ночь подразделения СС начинают акцию по истреблению местных жителей, вошедшую в историю как массовое убийство в Марцаботто...
Доп. информация: http://www.imdb.com/title/tt1351672/
Исходник: http://teatrix.ru/viewtopic.php?t=10695
Сэмпл: http://rusfolder.com/43619669
Качество видео: DVDRip-AVC
Формат видео: MKV
Видео: x264, 720x432@1024x432 (2.37:1), 25 fps, ~2279 kbps avg, 0.29 bit/pixel
Аудио: 48 kHz, AC3 Dolby Digital, 3/2 (L,C,R,l,r) + LFE ch, ~448.00 kbps avg

MediaInfo

Общее
Уникальный идентификатор : 250198019867733315708009399004604738896 (0xBC3A62C6FF723B79A719FA169F252D50)
Полное имя : E:\Фильмы\Тот, кто придет\L'uomo.che.verra.2009.DVDRip-AVC.mkv
Формат : Matroska
Версия формата : Version 2
Размер файла : 2,18 Гбайт
Продолжительность : 1 ч. 54 м.
Общий поток : 2728 Кбит/сек
Название фильма : L'uomo che verra (Giorgio Diritti, 2009) DVDRip-AVC
Дата кодирования : UTC 2015-04-28 14:13:10
Программа кодирования : mkvmerge v7.6.0 ('Garden of Dreams') 32bit built on Feb 11 2015 00:18:47
Библиотека кодирования : libebml v1.3.1 + libmatroska v1.4.2
Видео
Идентификатор : 1
Формат : AVC
Формат/Информация : Advanced Video Codec
Профиль формата : High@L4.1
Параметр CABAC формата : Да
Параметр ReFrames формата : 15 кадров
Идентификатор кодека : V_MPEG4/ISO/AVC
Продолжительность : 1 ч. 54 м.
Битрейт : 2279 Кбит/сек
Ширина : 720 пикселей
Высота : 432 пикселя
Соотношение сторон : 2,40:1
Режим частоты кадров : Постоянный
Частота кадров : 25,000 кадров/сек
Цветовое пространство : YUV
Субдискретизация насыщенности : 4:2:0
Битовая глубина : 8 бит
Тип развёртки : Прогрессивная
Бит/(Пиксели*Кадры) : 0.293
Размер потока : 1,78 Гбайт (82%)
Библиотека кодирования : x264 core 144 r2525 40bb568
Настройки программы : cabac=1 / ref=15 / deblock=1:-1:-1 / analyse=0x3:0x133 / me=umh / subme=10 / psy=1 / psy_rd=1.00:0.20 / mixed_ref=1 / me_range=32 / chroma_me=1 / trellis=2 / 8x8dct=1 / cqm=0 / deadzone=21,11 / fast_pskip=0 / chroma_qp_offset=-3 / threads=6 / lookahead_threads=1 / sliced_threads=0 / nr=0 / decimate=0 / interlaced=0 / bluray_compat=0 / constrained_intra=0 / bframes=11 / b_pyramid=2 / b_adapt=2 / b_bias=0 / direct=3 / weightb=1 / open_gop=0 / weightp=2 / keyint=250 / keyint_min=25 / scenecut=40 / intra_refresh=0 / rc=2pass / mbtree=0 / bitrate=2279 / ratetol=1.0 / qcomp=0.70 / qpmin=10 / qpmax=51 / qpstep=4 / cplxblur=20.0 / qblur=0.5 / ip_ratio=1.30 / pb_ratio=1.20 / aq=1:0.70 / zones=167951,171625,b=0.5
Язык : Italian
Default : Да
Forced : Нет
Коэффициенты матрицы : BT.601
Аудио
Идентификатор : 2
Формат : AC-3
Формат/Информация : Audio Coding 3
Расширение режима : CM (complete main)
Параметр Endianness формата : Big
Идентификатор кодека : A_AC3
Продолжительность : 1 ч. 54 м.
Вид битрейта : Постоянный
Битрейт : 448 Кбит/сек
Каналы : 6 каналов
Расположение каналов : Front: L C R, Side: L R, LFE
Частота : 48,0 КГц
Битовая глубина : 16 бит
Метод сжатия : С потерями
Размер потока : 367 Мбайт (16%)
Заголовок : Одноголосый закадровый viare по субтитрам merrzavka
Язык : Russian
Default : Да
Forced : Нет
Текст #1
Идентификатор : 3
Формат : UTF-8
Идентификатор кодека : S_TEXT/UTF8
Идентификатор кодека/Информация : UTF-8 Plain Text
Заголовок : merrzavka
Язык : Russian
Default : Нет
Forced : Нет
Текст #2
Идентификатор : 4
Формат : UTF-8
Идентификатор кодека : S_TEXT/UTF8
Идентификатор кодека/Информация : UTF-8 Plain Text
Язык : English
Default : Нет
Forced : Нет
Меню
00:00:00.000 : it:1. Titoli di testa
00:04:06.400 : it:2. Martina
00:08:45.720 : it:3. A tavola
00:12:16.720 : it:4. Benestare negato
00:16:32.360 : it:5. Riparo per la notte
00:21:00.360 : it:6. Ribelli
00:26:26.880 : it:7. Il tema di Martina
00:30:49.520 : it:8. Uova e vino
00:35:30.720 : it:9. Regole infrante
00:38:17.400 : it:10. Un nascondiglio
00:41:29.440 : it:11. Stanza in affitto
00:46:40.320 : it:12. "Stanno arrivando!"
00:53:51.320 : it:13. Mucche confiscate
00:57:39.040 : it:14. Benedizione
01:00:20.400 : it:15. Ferito
01:05:36.640 : it:16. Tedesco ucciso
01:09:52.160 : it:17. Comunione
01:13:27.920 : it:18. Case abbandonate
01:18:39.840 : it:19. Condotti a forza
01:22:32.840 : it:20. In salvo sotto le fronde
01:28:09.800 : it:21. Esecuzioni
01:33:50.280 : it:22. Miracolosamente viva
01:40:03.240 : it:23. Canonica
01:46:32.040 : it:24. Ritorno a casa

x264

x264 [info]: frame I:1341 Avg QP:15.73 size: 49320
x264 [info]: frame P:36909 Avg QP:17.21 size: 21299
x264 [info]: frame B:133375 Avg QP:18.19 size: 8270
x264 [info]: consecutive B-frames: 2.0% 2.9% 13.2% 10.6% 7.9% 56.3% 1.9% 1.1% 1.2% 1.3% 0.3% 1.2%
x264 [info]: mb I I16..4: 3.7% 83.4% 12.8%
x264 [info]: mb P I16..4: 0.7% 20.5% 2.2% P16..4: 29.9% 16.9% 21.7% 1.7% 1.0% skip: 5.4%
x264 [info]: mb B I16..4: 0.1% 3.2% 0.4% B16..8: 26.7% 13.0% 5.0% direct:14.0% skip:37.5% L0:39.9% L1:33.4% BI:26.8%
x264 [info]: 8x8 transform intra:87.0% inter:43.4%
x264 [info]: direct mvs spatial:98.5% temporal:1.5%
x264 [info]: coded y,uvDC,uvAC intra: 89.3% 76.7% 47.5% inter: 37.0% 20.5% 6.7%
x264 [info]: i16 v,h,dc,p: 43% 10% 12% 35%
x264 [info]: i8 v,h,dc,ddl,ddr,vr,hd,vl,hu: 26% 11% 34% 4% 4% 6% 3% 6% 6%
x264 [info]: i4 v,h,dc,ddl,ddr,vr,hd,vl,hu: 24% 8% 7% 7% 11% 15% 9% 11% 8%
x264 [info]: i8c dc,h,v,p: 47% 17% 28% 8%
x264 [info]: Weighted P-Frames: Y:8.3% UV:3.8%
x264 [info]: ref P L0: 49.5% 13.2% 13.4% 6.4% 4.4% 3.3% 2.6% 1.6% 1.3% 1.1% 0.9% 0.7% 0.6% 0.5% 0.4% 0.1%
x264 [info]: ref B L0: 76.7% 12.7% 4.3% 1.9% 1.2% 0.9% 0.7% 0.4% 0.3% 0.3% 0.2% 0.2% 0.1% 0.1%
x264 [info]: ref B L1: 94.1% 5.9%
[teatrix.ru].t5858.torrent 
Торрент: Зарегистрирован [ 2015-10-10 00:35 ] · 5F9DFA806E521E990C73580207068C2CC5843488

Скачать .torrent

Скачать

11 KB

Статус: проверено
Скачан: 0 раз
Размер: 2.18 GB
terms.php



Быстрый ответ

Имя:

      
Для отправки сообщений необходимо включить JavaScript
Показать сообщения:    

Текущее время: 05-Дек 21:38

Часовой пояс: UTC + 3


Вы можете начинать темы
Вы можете отвечать на сообщения
Вы не можете редактировать свои сообщения
Вы не можете удалять свои сообщения
Вы не можете голосовать в опросах
Вы не можете прикреплять файлы к сообщениям
Вы можете скачивать файлы