Туринская лошадь / The Turin Horse / A torinói ló (Бела Тарр / Béla Tarr, Агнеш Храницки / Ágnes Hranitzky) [2011, Венгрия, Франция, Германия, Швейцария, США, драма, BDRip] MVO (R5) + DVO (OzzTV) + Original Hun + Sub (Rus, Eng)


 

[Цитировать]

Туринская лошадь / The Turin Horse / A torinói ló- Год выпуска: 2011
Страна: Венгрия, Франция, Германия, Швейцария, США
Жанр: драма
Продолжительность: 02:35:26
Перевод: Профессиональный (многоголосый, закадровый) R5
+ Профессиональный (двухголосый, закадровый) Ozztv
+ Оригинальная венгерская звуковая дорожка
Субтитры: Русские (2 вида), Английские (внешние srt*)-Режиссер: Бела Тарр / Béla Tarr, Агнеш Храницки / Ágnes Hranitzky
В ролях: Янош Держи, Эрика Бок, Михай Кормош, Ричи, Михай Радаи
О фильме: В 1889 году на улице итальянского города Турина случилось странное происшествие. Кучер хлестал кнутом свою старую лошадь, которая отказывалась тронуться с места. Неожиданно к повозке подбежал хорошо одетый господин с пышными усами и обнял животное за шею, при этом горько зарыдав. Это был не кто иной, как всемирно известный философ Фридрих Ницше. Его с трудом увели от лошади, а когда привели домой, выяснилось, что он не в себе. Ницше поместили в лечебницу для душевнобольных, где он провел остаток жизни…
Но что же случилось с лошадью и ее хозяином? Об этом и расскажет фильм.-Релиз:
Автор: yaroslaigor
Качество: BDRip (источник: / BD-Remux / 1080p)
Формат: AVI
Видео: 720x432 (1.67:1), 23.976 fps, XviD build 65 ~2093 kbps avg, 0.28 bit/pixel
Аудио #1: 48 kHz, AC3 Dolby Digital, 2/0 (L,R), ~192.00 kbps avg mvo
Аудио #2: 48 kHz, AC3 Dolby Digital, 2/0 (L,R), ~192.00 kbps avg dvo
Аудио #3: 48 kHz, AC3 Dolby Digital, 2/0 (L,R), ~192.00 kbps avg hun
Размер: 2975.18 Mb (2/3 DVD-R)
Скачать: Семпл-

Кадры из фильма


-

Mi

Формат : AVI
Формат/Информация : Audio Video Interleave
Профиль формата : OpenDML
Размер файла : 2,91 Гбайт
Продолжительность : 2 ч. 35 м.
Общий поток : 2676 Кбит/сек
Название фильма : Туринская лошадь / The Turin Horse / A torinoi lo (2011) BDRip
Режиссёр : yaroslaigor
Жанр : драма
Программа кодирования : VirtualDubMod 1.5.10.2 (build 2542/release)
Примечание : 08.05.2015
Видео
Идентификатор : 0
Формат : MPEG-4 Visual
Профиль формата : Advanced Simple@L5
Параметр BVOP формата : 1
Параметр QPel формата : Нет
Параметр GMC формата : Без точки перехода
Параметр матрицы формата : Выборочная
Идентификатор кодека : XVID
Идентификатор кодека/Подсказка : XviD
Продолжительность : 2 ч. 35 м.
Битрейт : 2079 Кбит/сек
Ширина : 720 пикселей
Высота : 432 пикселя
Соотношение сторон : 1,667
Частота кадров : 23,976 кадра/сек
Цветовое пространство : YUV
Субдискретизация насыщенности : 4:2:0
Битовая глубина : 8 бит
Тип развёртки : Прогрессивная
Метод сжатия : С потерями
Бит/(Пиксели*Кадры) : 0.279
Размер потока : 2,26 Гбайт (78%)
Библиотека кодирования : XviD 65
Аудио #1
Идентификатор : 1
Формат : AC-3
Формат/Информация : Audio Coding 3
Расширение режима : CM (complete main)
Параметр Endianness формата : Big
Идентификатор кодека : 2000
Продолжительность : 2 ч. 35 м.
Вид битрейта : Постоянный
Битрейт : 192 Кбит/сек
Каналы : 2 канала
Расположение каналов : Front: L R
Частота : 48,0 КГц
Битовая глубина : 16 бит
Метод сжатия : С потерями
Размер потока : 213 Мбайт (7%)
Выравнивание : Разделение по промежуткам
Продолжительность промежутка : 42 мс. (1,00 видеокадр)
Время предзагрузки промежутка : 500 мс.
Аудио #2
Идентификатор : 2
Формат : AC-3
Формат/Информация : Audio Coding 3
Расширение режима : CM (complete main)
Параметр Endianness формата : Big
Идентификатор кодека : 2000
Продолжительность : 2 ч. 35 м.
Вид битрейта : Постоянный
Битрейт : 192 Кбит/сек
Каналы : 2 канала
Расположение каналов : Front: L R
Частота : 48,0 КГц
Битовая глубина : 16 бит
Метод сжатия : С потерями
Размер потока : 213 Мбайт (7%)
Выравнивание : Разделение по промежуткам
Продолжительность промежутка : 42 мс. (1,00 видеокадр)
Время предзагрузки промежутка : 500 мс.
Аудио #3
Идентификатор : 3
Формат : AC-3
Формат/Информация : Audio Coding 3
Расширение режима : CM (complete main)
Параметр Endianness формата : Big
Идентификатор кодека : 2000
Продолжительность : 2 ч. 35 м.
Вид битрейта : Постоянный
Битрейт : 192 Кбит/сек
Каналы : 2 канала
Расположение каналов : Front: L R
Частота : 48,0 КГц
Битовая глубина : 16 бит
Метод сжатия : С потерями
Размер потока : 213 Мбайт (7%)
Выравнивание : Разделение по промежуткам
Продолжительность промежутка : 42 мс. (1,00 видеокадр)
Время предзагрузки промежутка : 500 мс.
-



Показать сообщения:    

Текущее время: 11-Дек 14:56

Часовой пояс: UTC + 3


Вы не можете начинать темы
Вы не можете отвечать на сообщения
Вы не можете редактировать свои сообщения
Вы не можете удалять свои сообщения
Вы не можете голосовать в опросах
Вы не можете прикреплять файлы к сообщениям
Вы не можете скачивать файлы