Две англичанки и континент / Les deux Anglaises et le continent / Two English Girls (Франсуа Трюффо / Francois Truffaut) [1971, Франция, драма, DVDRip] AVO (Либергал) + Original Fre


Статистика раздачи [Обновить пиров]
Размер:  2.18 GB   |    Зарегистрирован:  1 год 1 месяц   |    Скачан:  0 раз

Полного источника не было: Никогда

 
   
 
 
 

[Цитировать]

Две англичанки и континент / Les deux Anglaises et le continent
Страна: Франция
Жанр: драма
Год выпуска: 1971
Продолжительность: 02:04:13
Перевод: Авторский (одноголосый закадровый) Григория Либергала
Cубтитры: нет
Оригинальная аудиодорожка: французский
Режиссер: Франсуа Трюффо / Francois Truffaut
В ролях: Жан-Пьер Лео /Jean-Pierre Leaud/, Кика Маркэм /Kika Markham/, Стэйси Тендетер /Stacey Tendeter/, Сильвия Мэрриотт /Sylvia Marriott/, Мари Мансар /Marie Mansart/, Филип Леотар /Philippe Leotard/, Ирен Тюнк /Irene Tunc/, Марк Питерсон /Mark Peterson/, Дэвид Маркэм /David Markham/, Жорж Делерю /Georges Delerue/
Рецензия Михаила Иванова: Трагическая любовная история о необычном любовном треугольнике, в котором каждый любит двоих, о сложности любви одного мужчины к двум женщинам. Фильм - как бы обратный вариант другой ленты Франсуа Трюффо "Жюль и Джим" (обе картины поставлены по романам Анри-Пьера Роше), в которой центральной фигурой была женщина.
Начало XX столетия. Рассказывается о Клоде (Лео), молодом критике-искусствоведе и подающем надежды писателе, который пробивает дорогу в жизни природным очарованием. В Париже он знакомится с Анн (Мархэм), свободной и раскрепощенной молодой женщиной, которая приглашает его провести лето в доме у моря, где она живет со своей сестрой Мюриэл (Тендетер). Анн относится к Клоду совсем не безразлично, но намеревается свести его с пуританкой Мюриэл, надеясь, что он влюбится в сестру. Ее план срабатывает, но, когда она сама заводит роман с Клодом, ситуация осложняется…
В одном из своих самых "темных" фильмов Трюффо искусно наращивает саспенс и напряжение. Фильм слишком часто сравнивают с "Жюлем и Джимом". Обе картины проливают свет на личность Роше (Трюффо имел доступ к его неопубликованным дневникам). Однако, "Две англичанки" смотреть интересней, особенно если иметь в виду, что лента предшествует более позднему фильму Трюффо "История Адель Г.": у Мюриэл есть заметные сходные черты с Адель Гюго.
Качество видео: DVDRip >>Сэмпл
Формат видео: AVI
Видео: 656x400 (1.64:1), 25 fps, XviD build 50 ~2026 kbps avg, 0.31 bit/pixel - исходный диск французского издания из сети
Аудио 1: 48 kHz, AC3 Dolby Digital, 2/0 (L,R) ch, ~224 kbps - перевод Либергала оцифрован и синхронизирован мной с коллекционной кассеты
Аудио 2: 48 kHz, AC3 Dolby Digital, 2/0 (L,R) ch, ~256 kbps - francais

MediaInfo

Формат : AVI
Формат/Информация : Audio Video Interleave
Профиль формата : OpenDML
Размер файла : 2,18 Гбайт
Продолжительность : 2 ч. 4 м.
Общий поток : 2514 Кбит/сек
Название фильма : Les Deux Anglaises et le Continent (1971)
Программа кодирования : VirtualDubMod 1.5.10.3 | www.virtualdub-fr.org || (build 2550/release)
Библиотека кодирования : VirtualDubMod build 2550/release
Правообладатель : sasikainen
Видео
Идентификатор : 0
Формат : MPEG-4 Visual
Профиль формата : Advanced Simple@L5
Параметр BVOP формата : 2
Параметр QPel формата : Нет
Параметр GMC формата : Без точки перехода
Параметр матрицы формата : Default (MPEG)
Идентификатор кодека : XVID
Идентификатор кодека/Подсказка : XviD
Продолжительность : 2 ч. 4 м.
Битрейт : 2016 Кбит/сек
Ширина : 656 пикселей
Высота : 400 пикселей
Соотношение сторон : 1,640
Частота кадров : 25,000 кадров/сек
Цветовое пространство : YUV
Субдискретизация насыщенности : 4:2:0
Битовая глубина : 8 бит
Тип развёртки : Прогрессивная
Метод сжатия : С потерями
Бит/(Пиксели*Кадры) : 0.307
Размер потока : 1,75 Гбайт (80%)
Библиотека кодирования : XviD 1.2.1 (UTC 2008-12-04)
Аудио #1
Идентификатор : 1
Формат : AC-3
Формат/Информация : Audio Coding 3
Расширение режима : CM (complete main)
Параметр Endianness формата : Big
Идентификатор кодека : 2000
Продолжительность : 2 ч. 4 м.
Вид битрейта : Постоянный
Битрейт : 224 Кбит/сек
Каналы : 2 канала
Расположение каналов : Front: L R
Частота : 48,0 КГц
Битовая глубина : 16 бит
Метод сжатия : С потерями
Размер потока : 199 Мбайт (9%)
Выравнивание : Разделение по промежуткам
Продолжительность промежутка : 40 мс. (1,00 видеокадр)
Время предзагрузки промежутка : 500 мс.
Заголовок : Libergal
Аудио #2
Идентификатор : 2
Формат : AC-3
Формат/Информация : Audio Coding 3
Расширение режима : CM (complete main)
Параметр Endianness формата : Big
Идентификатор кодека : 2000
Продолжительность : 2 ч. 4 м.
Вид битрейта : Постоянный
Битрейт : 256 Кбит/сек
Каналы : 2 канала
Расположение каналов : Front: L R
Частота : 48,0 КГц
Битовая глубина : 16 бит
Метод сжатия : С потерями
Размер потока : 227 Мбайт (10%)
Выравнивание : Разделение по промежуткам
Продолжительность промежутка : 40 мс. (1,00 видеокадр)
Время предзагрузки промежутка : 500 мс.
Заголовок : francais

Скриншоты

[teatrix.ru].t5863.torrent 
Торрент: Зарегистрирован [ 2015-10-10 00:35 ] · 9CB79AEF3D583BC7ABC7FDA3370BB7A894E08DEF

Скачать .torrent

Скачать

12 KB

Статус: проверено
Скачан: 0 раз
Размер: 2.18 GB
terms.php



Быстрый ответ

Имя:

      
Для отправки сообщений необходимо включить JavaScript
Показать сообщения:    

Текущее время: 06-Дек 18:59

Часовой пояс: UTC + 3


Вы можете начинать темы
Вы можете отвечать на сообщения
Вы не можете редактировать свои сообщения
Вы не можете удалять свои сообщения
Вы не можете голосовать в опросах
Вы не можете прикреплять файлы к сообщениям
Вы можете скачивать файлы