Феликс и Лола / Félix et Lola (Патрис Леконт / Patrice Leconte) [2001, Франция, драма, мелодрама, DVDRip] AVO (Сербин) + DVO


Статистика раздачи [Обновить пиров]
Размер:  1.44 GB   |    Зарегистрирован:  1 год 1 месяц   |    Скачан:  0 раз

Полного источника не было: Никогда

 
   
 
 
 

[Цитировать]

Феликс и Лола / Félix et Lola Страна: Франция
Жанр: драма, мелодрама
Год выпуска: 2001
Продолжительность: 01:27:36
Перевод 1: Авторский (одноголосый закадровый) Юрий Сербин
Перевод 2: Профессиональный (двухголосый закадровый)
Cубтитры: нет
Режиссер: Патрис Леконт / Patrice Leconte
В ролях: Шарлотта Гинсбур, Филипп Торретон, Ален Башан, Филипп Дю Жанеран, Ахмед Гуэдайа, Карим Сутан, Мюриэль Комбо, Дидье Коши, Эммануэль Батай, Джеральдина Фараони
Описание: Феликс — владелец автодрома в парке аттракционов. Однажды он видит девушку, которая молча катается по кругу, полностью погрузившись в себя. Она не улыбается, не смеется, не реагирует на удары других машин. Сначала его только интригует отрешенный взгляд девушки, ее вечная задумчивость, ее неизменное молчание. Вскоре Феликс понимает, что влюбился. Ее зовут Лола, — и это все, что ему удалось узнать. Между ними — тайна ее прошлого…

Качество видео: DVDRip спасибо AlexUlian
Формат видео: AVI
Видео кодек: XviD
Аудио кодек: AC3
Видео: 688x304 (2.26:1), 25 fps, XviD build 73 ~1754 kbps avg, 0.34 bit/pixel
Аудио#1: 48 kHz, AC3 Dolby Digital, 2/0 (L,R) ch, ~192 kbps - Сербин
Аудио#2: 48 kHz, AC3 Dolby Digital, 3/2 (L,C,R,l,r) + LFE ch, ~384 kbps - Двухголоска

Доп.инфо

за дорогу с переводом Сербина спасибо Fikaloid

MediaInfo

Полное имя : Феликс и Лола.avi
Формат : AVI
Формат/Информация : Audio Video Interleave
Размер файла : 1,44 Гбайт
Продолжительность : 1 ч. 27 м.
Общий поток : 2346 Кбит/сек
Программа кодирования : VirtualDubMod 1.5.10.2 (build 2540/release)
Библиотека кодирования : VirtualDubMod build 2540/release
Видео
Идентификатор : 0
Формат : MPEG-4 Visual
Профиль формата : Advanced Simple@L5
Параметр BVOP формата : 2
Параметр QPel формата : Нет
Параметр GMC формата : Без точки перехода
Параметр матрицы формата : Выборочная
Идентификатор кодека : XVID
Идентификатор кодека/Подсказка : XviD
Продолжительность : 1 ч. 27 м.
Битрейт : 1755 Кбит/сек
Ширина : 688 пикселей
Высота : 304 пикселя
Соотношение сторон : 2,25:1
Частота кадров : 25,000 кадров/сек
Цветовое пространство : YUV
Субдискретизация насыщенности : 4:2:0
Битовая глубина : 8 бит
Тип развёртки : Прогрессивная
Метод сжатия : С потерями
Бит/(Пиксели*Кадры) : 0.336
Размер потока : 1,07 Гбайт (75%)
Библиотека кодирования : XviD 73
Аудио #1
Идентификатор : 1
Формат : AC-3
Формат/Информация : Audio Coding 3
Расширение режима : CM (complete main)
Параметр Endianness формата : Big
Идентификатор кодека : 2000
Продолжительность : 1 ч. 27 м.
Вид битрейта : Постоянный
Битрейт : 192 Кбит/сек
Каналы : 2 канала
Расположение каналов : Front: L R
Частота : 48,0 КГц
Битовая глубина : 16 бит
Метод сжатия : С потерями
Размер потока : 120 Мбайт (8%)
Выравнивание : Разделение по промежуткам
Продолжительность промежутка : 40 мс. (1,00 видеокадр)
Время предзагрузки промежутка : 500 мс.
Заголовок : Сербин
Аудио #2
Идентификатор : 2
Формат : AC-3
Формат/Информация : Audio Coding 3
Расширение режима : CM (complete main)
Параметр Endianness формата : Big
Идентификатор кодека : 2000
Продолжительность : 1 ч. 27 м.
Вид битрейта : Постоянный
Битрейт : 384 Кбит/сек
Каналы : 6 каналов
Расположение каналов : Front: L C R, Side: L R, LFE
Частота : 48,0 КГц
Битовая глубина : 16 бит
Метод сжатия : С потерями
Размер потока : 241 Мбайт (16%)
Выравнивание : Разделение по промежуткам
Продолжительность промежутка : 40 мс. (1,00 видеокадр)
Время предзагрузки промежутка : 500 мс.
Заголовок : Двухголоска

Скриншоты

[teatrix.ru].t5864.torrent 
Торрент: Зарегистрирован [ 2015-10-10 00:35 ] · 4D6E536DD3ED4E4C26AED80E245BD858E1D96036

Скачать .torrent

Скачать

15 KB

Статус: проверено
Скачан: 0 раз
Размер: 1.44 GB
terms.php



Быстрый ответ

Имя:

      
Для отправки сообщений необходимо включить JavaScript
Показать сообщения:    

Текущее время: 08-Дек 19:12

Часовой пояс: UTC + 3


Вы можете начинать темы
Вы можете отвечать на сообщения
Вы не можете редактировать свои сообщения
Вы не можете удалять свои сообщения
Вы не можете голосовать в опросах
Вы не можете прикреплять файлы к сообщениям
Вы можете скачивать файлы