Джимми Пикард / Jimmy P. (Арно Деплешен / Arnaud Desplechin) [2013, США, Франция, психосоматическая драма, DVDRip] VO (qwerty)


Статистика раздачи [Обновить пиров]
Размер:  1.43 GB   |    Зарегистрирован:  1 год 1 месяц   |    Скачан:  0 раз

Полного источника не было: Никогда

 
   
 
 
 

[Цитировать]

Джимми / Jimmy P.
Страна: США, Франция
Жанр: психосоматическая драма
Год выпуска: 2013
Продолжительность: 1:56:57
Перевод: Озвучивание одноголосое закадровое (qwerty). Перевод: Playball
Cубтитры: нет
Оригинальная аудиодорожка: нет
Режиссер: Арно Деплешен / Arnaud Desplechin
В ролях: Бенисио Дель Торо, Матьё Амальрик, Джина МакКи, Мишель Траш, Джозеф Кросс, Илья Баскин, Эй Мартинез
Описание: Спустя несколько лет после Второй Мировой войны Джимми, воевавшего американского этноиндейца, невыносимо мучают психосоматические головные боли. Чтобы вылечиться от них, надо залезть глубоко в подсознание Джимми, где скрываются неразрешенные им в прошлом его проблемы. Берется его вылечить психоаналитик, врач Деврё.
Фильм основан на реальных событиях.
Сэмпл: http://sendfile.su/1112216
Качество видео: DVDRip
Формат видео: AVI
Видео: Xvid; 672*288; 1360 Кбит/сек; 23,976 кадра/сек; 0.293
Аудио: ac3; 48кГц; 384 Кбит/сек; 6 каналов

MediaInfo

Формат : AVI
Формат/Информация : Audio Video Interleave
Размер файла : 1,43 Гбайт
Продолжительность : 1 ч. 56 м.
Общий поток : 1753 Кбит/сек
Программа кодирования : VirtualDubMod 1.5.10.2 (build 2540/release)
Библиотека кодирования : VirtualDubMod build 2540/release
Видео
Идентификатор : 0
Формат : xvid
Идентификатор кодека : xvid
Продолжительность : 1 ч. 56 м.
Битрейт : 1360 Кбит/сек
Ширина : 672 пикселя
Высота : 288 пикселей
Соотношение сторон : 2,35:1
Частота кадров : 23,976 кадра/сек
Бит/(Пиксели*Кадры) : 0.293
Размер потока : 1,11 Гбайт (78%)
Аудио
Идентификатор : 1
Формат : AC-3
Формат/Информация : Audio Coding 3
Расширение режима : CM (complete main)
Параметр Endianness формата : Big
Идентификатор кодека : 2000
Продолжительность : 1 ч. 56 м.
Вид битрейта : Постоянный
Битрейт : 384 Кбит/сек
Каналы : 6 каналов
Расположение каналов : Front: L C R, Side: L R, LFE
Частота : 48,0 КГц
Битовая глубина : 16 бит
Метод сжатия : С потерями
Размер потока : 321 Мбайт (22%)
Выравнивание : Разделение по промежуткам
Продолжительность промежутка : 42 мс. (1,00 видеокадр)
Время предзагрузки промежутка : 500 мс

Скриншот c названием фильма

Скриншоты

[teatrix.ru].t5869.torrent 
Торрент: Зарегистрирован [ 2015-10-10 00:35 ] · 4AFEF808BC1850C9E4BA276F3E09B601C0F7087C

Скачать .torrent

Скачать

15 KB

Статус: проверено
Скачан: 0 раз
Размер: 1.43 GB
terms.php



Быстрый ответ

Имя:

      
Для отправки сообщений необходимо включить JavaScript
Показать сообщения:    

Текущее время: 04-Дек 00:50

Часовой пояс: UTC + 3


Вы можете начинать темы
Вы можете отвечать на сообщения
Вы не можете редактировать свои сообщения
Вы не можете удалять свои сообщения
Вы не можете голосовать в опросах
Вы не можете прикреплять файлы к сообщениям
Вы можете скачивать файлы