Боги / Bogowie (Лукаш Палковски / Lukasz Palkowski) [2014, Польша, драма, криминал, HDRip] VO (Shoegaze) + Original Pol


 

[Цитировать]

Боги / Bogowie Ringer Информация о фильме:
Год выпуска: 2014
Страна: Польша / Watch Out Productions
Жанр: драма, биография
Продолжительность: 01:55:58
Перевод: Одноголосый закадровый / Озвучено: by Shoegaze
Оригинальная аудиодорожка: польский
Режиссер: Лукаш Палковски
В ролях: Томаш Кот, Петр Гловацкий, Шимон Пётр Варшавский, Магдалена Червиньска, Рафаль Заверуха, Марта Цислович, Каролина Пихот, Войцех Соларш, Аркадиуш Яничек, Цезари Косиньски
Описание: Фильм рассказывает о начале карьеры известного польского кардиохирурга Збигнева Религи, который в 1985 году сделал первую в Польше успешную операцию по пересадке сердца…
http://www.kinopoisk.ru/film/846802
Сэмпл: http://multi-up.com/1046225
Скачать: BDRip 720
Перевод: Субтитры Марина Болевска / "LIDEX"
Файл
Качество видео: HDRip
Формат видео: AVI
Видео: XviD, 25.000 fps, 1617 kbps, 720х304
Аудио 1: AC3, 48.0 kHz, 6 ch, 448 kbps
Аудио 2: AC3, 48.0 kHz, 6 ch, 448 kbps - оригинал
Cубтитры: нет

MediaInfo

General
Complete name : Bogowie.2014.HDRip.XviD.AC3.Rus.avi
Format : AVI
Format/Info : Audio Video Interleave
Format profile : OpenDML
File size : 2.05 GiB
Duration : 1h 55mn
Overall bit rate : 2 532 Kbps
Writing application : VirtualDubMod 1.5.10.2 (build 2540/release)
Writing library : VirtualDubMod build 2540/release
Video
ID : 0
Format : MPEG-4 Visual
Format profile : Advanced Simple@L5
Format settings, BVOP : 2
Format settings, QPel : No
Format settings, GMC : No warppoints
Format settings, Matrix : Default (MPEG)
Codec ID : XVID
Codec ID/Hint : XviD
Duration : 1h 55mn
Bit rate : 1 617 Kbps
Width : 720 pixels
Height : 304 pixels
Display aspect ratio : 2.35:1
Frame rate : 25.000 fps
Color space : YUV
Chroma subsampling : 4:2:0
Bit depth : 8 bits
Scan type : Progressive
Compression mode : Lossy
Bits/(Pixel*Frame) : 0.295
Stream size : 1.31 GiB (64%)
Writing library : XviD 1.2.1 (UTC 2008-12-04)
Audio #1
ID : 1
Format : AC-3
Format/Info : Audio Coding 3
Mode extension : CM (complete main)
Format settings, Endianness : Big
Codec ID : 2000
Duration : 1h 55mn
Bit rate mode : Constant
Bit rate : 448 Kbps
Channel(s) : 6 channels
Channel positions : Front: L C R, Side: L R, LFE
Sampling rate : 48.0 KHz
Bit depth : 16 bits
Compression mode : Lossy
Stream size : 372 MiB (18%)
Alignment : Split accross interleaves
Interleave, duration : 40 ms (1.00 video frame)
Interleave, preload duratio : 500 ms
Audio #2
ID : 2
Format : AC-3
Format/Info : Audio Coding 3
Mode extension : CM (complete main)
Format settings, Endianness : Big
Codec ID : 2000
Duration : 1h 55mn
Bit rate mode : Constant
Bit rate : 448 Kbps
Channel(s) : 6 channels
Channel positions : Front: L C R, Side: L R, LFE
Sampling rate : 48.0 KHz
Bit depth : 16 bits
Compression mode : Lossy
Stream size : 372 MiB (18%)
Alignment : Split accross interleaves
Interleave, duration : 40 ms (1.00 video frame)
Interleave, preload duratio : 500 ms

Скриншот c названием фильма

Скриншоты




Показать сообщения:    

Текущее время: 06-Дек 19:02

Часовой пояс: UTC + 3


Вы не можете начинать темы
Вы не можете отвечать на сообщения
Вы не можете редактировать свои сообщения
Вы не можете удалять свои сообщения
Вы не можете голосовать в опросах
Вы не можете прикреплять файлы к сообщениям
Вы не можете скачивать файлы