Цыпочки / Лукаво сердце человеческое более всего / The Heart Is Deceitful Above All Things (Азия Ардженто / Asia Argento) [2004, США, Франция, Япония, Великобритания, драма, DVDRip] DVO + Sub Rus + Original Eng


Статистика раздачи [Обновить пиров]
Размер:  1.75 GB   |    Зарегистрирован:  1 год 3 месяца   |    Скачан:  0 раз

Полного источника не было: Никогда

 
   
 
 
 

[Цитировать]

Цыпочки / Лукаво сердце человеческое более всего / The Heart Is Deceitful Above All Things-
-
- Страна: США, Франция, Япония, Великобритания
Жанр: драма
Год выпуска: 2004
Продолжительность: 01:33:41
Перевод: Профессиональный (двухголосый закадровый)
Cубтитры: русские
Оригинальная аудиодорожка: английский

Режиссер: Азия Ардженто / Asia Argento
В ролях: Азия Ардженто, Джимми Беннетт, Кара Кемп, Брент Элмонд, Дэвид Двайер, Кип Парду, Джереми Реннер, Дэвид Брайан Элли, Лидия Ланч, Орнелла Мути
Описание: Страшная и странная история о том, как маленький Джеремия, прожив счастливые семь лет у приемных родителей, оказывается один на один со своей биологической матерью, проституткой, наркоманкой и психически неуравновешенной особой. Дальнейшие его приключения: непрекращающаяся череда насилия, воспитание кнутом и отсутствие пряника. Результат, как ни странно, рождается неожиданно положительным: мать и сын обретают душевное единение и внутреннюю гармонию с самими собой. В фильме нет сцен убийств, насилия, пыток, нечеловеческих криков, но он жесток. Камера стыдливо не показывает страшных сцен, вместо крови зритель видит на экране красных петухов, а, когда сердце разрывается от бездушности окружающих, нам показывают снующие туда-сюда машины, иллюстрирующие суету и безразличие человечества.
Качество видео: DVDRip
Формат видео: AVI
Видео: 704x384 (1.83:1), 25 fps, XviD build 73 ~1768 kbps avg, 0.26 bit/pixel
Аудио: 48 kHz, AC3 Dolby Digital, 3/2 (L,C,R,l,r) + LFE ch, ~448 kbps - двухголосый
Аудио: 48 kHz, AC3 Dolby Digital, 3/2 (L,C,R,l,r) + LFE ch, ~448 kbps - оригинал (отдельным файлом)

MediaInfo

Общее
Полное имя : H:\The.Heart.Is.Deceitful.Above.All.Things.2004.dvdrip_[1.46]_[teko]\The.Heart.Is.Deceitful.Above.All.Things.2004.dvdrip_[1.46].avi
Формат : AVI
Формат/Информация : Audio Video Interleave
Размер файла : 1,46 Гбайт
Продолжительность : 1 ч. 33 м.
Общий поток : 2226 Кбит/сек
Программа кодирования : VirtualDubMod 1.5.10.3 | www.virtualdub-fr.org || (build 2550/release)
Библиотека кодирования : VirtualDubMod build 2550/release
Видео
Идентификатор : 0
Формат : MPEG-4 Visual
Профиль формата : Advanced Simple@L5
Параметр BVOP формата : 1
Параметр QPel формата : Нет
Параметр GMC формата : Без точки перехода
Параметр матрицы формата : Выборочная
Идентификатор кодека : XVID
Идентификатор кодека/Подсказка : XviD
Продолжительность : 1 ч. 33 м.
Битрейт : 1769 Кбит/сек
Ширина : 704 пикселя
Высота : 384 пикселя
Соотношение сторон : 1,85:1
Частота кадров : 25,000 кадров/сек
Цветовое пространство : YUV
Субдискретизация насыщенности : 4:2:0
Битовая глубина : 8 бит
Тип развёртки : Прогрессивная
Метод сжатия : С потерями
Бит/(Пиксели*Кадры) : 0.262
Размер потока : 1,16 Гбайт (79%)
Библиотека кодирования : XviD 73
Аудио
Идентификатор : 1
Формат : AC-3
Формат/Информация : Audio Coding 3
Расширение режима : CM (complete main)
Параметр Endianness формата : Big
Идентификатор кодека : 2000
Продолжительность : 1 ч. 33 м.
Вид битрейта : Постоянный
Битрейт : 448 Кбит/сек
Каналы : 6 каналов
Расположение каналов : Front: L C R, Side: L R, LFE
Частота : 48,0 КГц
Битовая глубина : 16 бит
Метод сжатия : С потерями
Размер потока : 300 Мбайт (20%)
Выравнивание : Разделение по промежуткам
Продолжительность промежутка : 40 мс. (1,00 видеокадр)
Время предзагрузки промежутка : 500 мс.
-
[teatrix.ru].t5871.torrent 
Торрент: Зарегистрирован [ 2015-10-10 00:35 ] · 3F76DCEFF456FEBA6B96C681C9C898D27CE7970A

Скачать .torrent

Скачать

18 KB

Статус: проверено
Скачан: 0 раз
Размер: 1.75 GB
terms.php



Быстрый ответ

Имя:

      
Для отправки сообщений необходимо включить JavaScript
Показать сообщения:    

Текущее время: 21-Янв 11:38

Часовой пояс: UTC + 3


Вы можете начинать темы
Вы можете отвечать на сообщения
Вы не можете редактировать свои сообщения
Вы не можете удалять свои сообщения
Вы не можете голосовать в опросах
Вы не можете прикреплять файлы к сообщениям
Вы можете скачивать файлы