Священная гора / The Holy Mountain (Алехандро Ходоровски / Alexandro Jodorowsky) [1973, США, Мексика, сюрреализм, драма, притча, BDRip-AVC] AVO (А.Алексеев) + Original (Eng) + Sub (Rus, Eng)


 

[Цитировать]

Священная гора / The Holy Mountain Страна: США, Мексика
Жанр: Сюрреализм, драма, притча
Год выпуска: 1973
Продолжительность: 01:53:28
Перевод: Авторский одноголосый закадровый (Антон Алексеев)
Оригинальная аудиодорожка: Английский
Cубтитры: Русские, английские
Режиссёр: Алехандро Ходоровски / Alejandro Jodorowsky
В ролях: Алехандро Ходоровски / Alejandro Jodorowsky, Орасио Салинас / Horacio Salinas, Замира Саундерс / Zamira Saunders, Хуан Феррара / Juan Ferrara, Валери Ходоровски / Valerie Jodorowsky и другие...
Описание:
Главный герой, выглядящий как Христос, встречается с неким Алхимиком, знатоком дзен-буддизма и космического учения. А группа самых отборных философствующих злодеев якобы с семи планет образует коммуну учеников, которые задумали взобраться на Святую Гору, чтобы найти тайну бессмертия.
Перед зрителями предстает весьма интересное видение давно известной истории. Когда Христос сумел освободиться от своих оков, он вдруг попал в современный город. Вокруг него – исключительно человеческие пороки, которые вызывают непонимание и страх. Люди целиком посвятили себя культу смерти и секса. Именно здесь главный герой данной истории становится участником одной из эзотерических школ, в которой учатся исключительно маги.
Печальней всего, что в эту же школу попали и другие люди, большая часть которых имеет лишь молодость и развращённость. Все они привыкли наслаждаться своей жизнью и представляют самые разные участник Солнечной системы. Гуру, вместе со своими учениками, отправляется к Священной горе. Именно там обитает девять мудрецов и, согласно с царящей легендой, именно этим людям раскрылся секрет человеческого бессмертия. Именно ради этого секрета и было затеяно всё путешествие, именно ради него многие люди отказались от своих привычных дел и жизней, в результате чего и попали в не самое простое положение. Но чем же обернется очередной поход, который решили начать наши главные герои?
Фильм отличает обилие сюрреалистично-психоделических образов, аллюзий, антиутопичность.
Качество видео: BDRip-AVC
Формат видео: MKV
Видео: AVC/H264, High@L4.1, 1152x490 (2.35:1), 23,976 fps, 4094 kbps, 0.296 bit/pixel
Аудио #1: Русский одноголосый: AC3, 48 kHz, стерео, 192 kbps, 16 bit | Антон Алексеев
Аудио #2: Английский: AC3, 48 kHz, 5.1, 384 kbps, 16 bit
Cубтитры: Русские, английские-

MediaInfo / x264 logx264 log

raw [info]: 1152x490p 1:1 @ 24000/1001 fps (cfr)
x264 [info]: using SAR=1/1
x264 [info]: using cpu capabilities: MMX2 SSE2Fast SSSE3 SSE4.2
x264 [info]: profile High, level 4.1
x264 [info]: frame I:1076 Avg QP:19.97 size: 87770
x264 [info]: frame P:31853 Avg QP:20.75 size: 39533
x264 [info]: frame B:130322 Avg QP:22.33 size: 16354
x264 [info]: consecutive B-frames: 0.9% 0.6% 3.0% 19.9% 17.8% 50.7% 3.9% 1.0% 1.2% 0.3% 0.3% 0.1%
x264 [info]: mb I I16..4: 2.0% 85.0% 12.9%
x264 [info]: mb P I16..4: 0.1% 12.0% 1.1% P16..4: 30.2% 37.3% 15.6% 2.1% 0.2% skip: 1.5%
x264 [info]: mb B I16..4: 0.0% 1.6% 0.1% B16..8: 33.7% 21.3% 4.5% direct:10.6% skip:28.1% L0:36.8% L1:41.3% BI:21.9%
x264 [info]: 8x8 transform intra:91.0% inter:54.9%
x264 [info]: coded y,uvDC,uvAC intra: 98.4% 91.2% 70.8% inter: 41.8% 33.4% 11.7%
x264 [info]: i16 v,h,dc,p: 15% 19% 9% 56%
x264 [info]: i8 v,h,dc,ddl,ddr,vr,hd,vl,hu: 8% 9% 9% 10% 14% 12% 13% 11% 14%
x264 [info]: i4 v,h,dc,ddl,ddr,vr,hd,vl,hu: 12% 7% 3% 9% 15% 14% 14% 12% 13%
x264 [info]: i8c dc,h,v,p: 46% 21% 17% 16%
x264 [info]: Weighted P-Frames: Y:13.9% UV:7.8%
x264 [info]: ref P L0: 40.3% 12.6% 21.3% 7.4% 6.5% 4.3% 4.5% 2.6% 0.3% 0.0%
x264 [info]: ref B L0: 79.5% 11.8% 3.7% 2.2% 1.4% 0.9% 0.5%
x264 [info]: ref B L1: 95.4% 4.6%
x264 [info]: kb/s:4094.62

MediaInfo

Формат : Matroska
Версия формата : Version 4 / Version 2
Размер файла : 3,70 Гбайт
Продолжительность : 1 ч. 53 м.
Общий поток : 4673 Кбит/сек
Дата кодирования : UTC 2015-04-25 22:23:11
Программа кодирования : mkvmerge v7.8.0 ('River Man') 64bit built on Mar 27 2015 16:31:37
Библиотека кодирования : libebml v1.3.1 + libmatroska v1.4.2
DURATION : 01:50:58.917000000
NUMBER_OF_FRAMES : 371
NUMBER_OF_BYTES : 22543
Видео
Идентификатор : 1
Формат : AVC
Формат/Информация : Advanced Video Codec
Профиль формата : High@L4.1
Параметр CABAC формата : Да
Параметр ReFrames формата : 8 кадров
Идентификатор кодека : V_MPEG4/ISO/AVC
Продолжительность : 1 ч. 53 м.
Битрейт : 4004 Кбит/сек
Ширина : 1152 пикселя
Высота : 490 пикселей
Соотношение сторон : 2,35:1
Режим частоты кадров : Постоянный
Частота кадров : 23,976 кадра/сек
Цветовое пространство : YUV
Субдискретизация насыщенности : 4:2:0
Битовая глубина : 8 бит
Тип развёртки : Прогрессивная
Бит/(Пиксели*Кадры) : 0.296
Размер потока : 3,17 Гбайт (86%)
Заголовок : Священная гора / The Holy Mountain (1973) BDRip-AVC © @ndtwice
Библиотека кодирования : x264 core 146 r2538 121396c
Настройки программы : cabac=1 / ref=8 / deblock=1:-3:-3 / analyse=0x3:0x133 / me=umh / subme=11 / psy=1 / psy_rd=1.00:0.10 / mixed_ref=1 / me_range=96 / chroma_me=1 / trellis=2 / 8x8dct=1 / cqm=0 / deadzone=6,6 / fast_pskip=0 / chroma_qp_offset=-3 / threads=3 / lookahead_threads=1 / sliced_threads=0 / nr=0 / decimate=0 / interlaced=0 / bluray_compat=0 / constrained_intra=0 / bframes=11 / b_pyramid=2 / b_adapt=2 / b_bias=0 / direct=1 / weightb=1 / open_gop=0 / weightp=2 / keyint=250 / keyint_min=23 / scenecut=40 / intra_refresh=0 / rc=crf / mbtree=0 / crf=19.8 / qcomp=0.90 / qpmin=10 / qpmax=55 / qpstep=4 / ip_ratio=1.20 / pb_ratio=1.20 / aq=1:0.50 / zones=161440,163251,b=0.3
Язык : English
Default : Да
Forced : Нет
DURATION : 01:53:28.927000000
NUMBER_OF_FRAMES : 163251
NUMBER_OF_BYTES : 3485000556
Аудио #1
Идентификатор : 2
Формат : AC-3
Формат/Информация : Audio Coding 3
Расширение режима : CM (complete main)
Параметр Endianness формата : Big
Идентификатор кодека : A_AC3
Продолжительность : 1 ч. 53 м.
Вид битрейта : Постоянный
Битрейт : 192 Кбит/сек
Каналы : 2 канала
Расположение каналов : Front: L R
Частота : 48,0 КГц
Битовая глубина : 16 бит
Метод сжатия : С потерями
Размер потока : 156 Мбайт (4%)
Заголовок : AVO А.Алексеев
Язык : Russian
Default : Да
Forced : Нет
Аудио #2
Идентификатор : 3
Формат : AC-3
Формат/Информация : Audio Coding 3
Расширение режима : CM (complete main)
Параметр Endianness формата : Big
Идентификатор кодека : A_AC3
Продолжительность : 1 ч. 53 м.
Вид битрейта : Постоянный
Битрейт : 384 Кбит/сек
Каналы : 6 каналов
Расположение каналов : Front: L C R, Side: L R, LFE
Частота : 48,0 КГц
Битовая глубина : 16 бит
Метод сжатия : С потерями
Размер потока : 312 Мбайт (8%)
Заголовок : Original
Язык : English
Default : Нет
Forced : Нет
Текст #1
Идентификатор : 4
Формат : UTF-8
Идентификатор кодека : S_TEXT/UTF8
Идентификатор кодека/Информация : UTF-8 Plain Text
Заголовок : Subs Rus
Язык : Russian
Default : Нет
Forced : Нет
Текст #2
Идентификатор : 5
Формат : UTF-8
Идентификатор кодека : S_TEXT/UTF8
Идентификатор кодека/Информация : UTF-8 Plain Text
Заголовок : Subs Eng
Язык : English
Default : Нет
Forced : Нет

Скриншоты

Сравнение с исходником

http://screenshotcomparison.com/comparison/123900
-Исходник:
BDRemux 1080p (28134 kbps)



Показать сообщения:    

Текущее время: 11-Дек 14:58

Часовой пояс: UTC + 3


Вы не можете начинать темы
Вы не можете отвечать на сообщения
Вы не можете редактировать свои сообщения
Вы не можете удалять свои сообщения
Вы не можете голосовать в опросах
Вы не можете прикреплять файлы к сообщениям
Вы не можете скачивать файлы