Кулаки в карманах / I pugni in tasca / Fists in the Pocket (Марко Беллоккьо / Marco Bellocchio) [1965, Италия, драма, DVDRip] MVO (Культура) + Original Ita


Статистика раздачи [Обновить пиров]
Размер:  1.45 GB   |    Зарегистрирован:  1 год 1 месяц   |    Скачан:  0 раз

Полного источника не было: Никогда

 
   
 
 
 

[Цитировать]

Кулаки в карманах / I pugni in tasca / Fists in the Pocket
Страна: Италия
Жанр: Драма
Год выпуска: 1965
Продолжительность: 01:48:53
Перевод: Профессиональный (многоголосый закадровый) студия "СВ-Дубль" по заказу "Камер-Тон-Медиа"
Cубтитры: нет
Оригинальная аудиодорожка: итальянский
Режиссер: Марко Беллоккьо / Marco Bellocchio
В ролях: Лу Кастель /Lou Castel/, Паола Питагора /Paola Pitagora/, Ирена Агнелли /Irene Agnelli/, Марино Мазе /Marino Masé/
Описание: Потрясающий дебют режиссера Марко Беллоккьо представляет собой необычную трагикомедию о семье сумасшедших эпилептиков со слепой матерью. Такой сюжетный ход предполагает особенно извращенную мыльную оперу. Аугусто (Мазе) - единственный здоровый сын в этом сборище, чьи сложные и многочисленные проблемы угрожают благополучию его собственной жизни. Он хочет жениться, но чувствует, что это невозможно, пока он живет в семье, висящей у него на ногах, как бетонные блоки. Его младший брат Алессандро (Кастель) сочувствует брату и поэтому решает убить всех остальных членов семьи, чтобы Аугусто мог получить наследство и начать новую жизнь.
Поразительно холодная и уверенная режиссура заряжает фильм уникальным темпераментом. Жуткий материал - убийство матери, отцеубийство и инцест - вовсе не так смешон, как, вроде бы, ему положено; актеры, подчиняясь мастерской режиссуре, играют с таким блеском и страстью, что зрителю иногда не хватает дыхания, чтобы смеяться. Игра Лу Кастеля брызжет энергией ненависти, которую редко увидишь на экране.
Финальная сцена под мелодию "Жизнь прекрасна" - одна из самых сильных по драматизму в мировом кинематографе.
Сэмпл: http://multi-up.com/1045471
Качество видео: DVDRip
Формат видео: AVI
Видео: MPEG4, XviD, 704x384 (16/9), 23.976 fps, 1 514 Kbps (0.234 bit/pixel)
Аудио: AC-3, 48.0 KHz, 2 ch, 192 Kbps, CBR - русский
Аудио 2: AC-3, 48.0 KHz, 1 ch, 192 Kbps, CBR - итальянский

MediaInfo

Общее
Полное имя : K:\Кулаки в карманах.avi
Формат : AVI
Формат/Информация : Audio Video Interleave
Размер файла : 1,45 Гбайт
Продолжительность : 1 ч. 48 м.
Общий поток : 1912 Кбит/сек
Название фильма : Кулаки в карманах / I pugni in tasca / Fists in the Pocket (1965)
Программа кодирования : VirtualDubMod 1.5.10.2 (build 2540/release)
Библиотека кодирования : VirtualDubMod build 2540/release
Правообладатель : miha2154
Видео
Идентификатор : 0
Формат : MPEG-4 Visual
Профиль формата : Advanced Simple@L5
Параметр BVOP формата : 1
Параметр QPel формата : Нет
Параметр GMC формата : Без точки перехода
Параметр матрицы формата : Выборочная
Идентификатор кодека : XVID
Идентификатор кодека/Подсказка : XviD
Продолжительность : 1 ч. 48 м.
Битрейт : 1514 Кбит/сек
Ширина : 704 пикселя
Высота : 384 пикселя
Соотношение сторон : 1,85:1
Частота кадров : 23,976 кадра/сек
Цветовое пространство : YUV
Субдискретизация насыщенности : 4:2:0
Битовая глубина : 8 бит
Тип развёртки : Прогрессивная
Метод сжатия : С потерями
Бит/(Пиксели*Кадры) : 0.234
Размер потока : 1,15 Гбайт (79%)
Библиотека кодирования : XviD 65
Аудио #1
Идентификатор : 1
Формат : AC-3
Формат/Информация : Audio Coding 3
Расширение режима : CM (complete main)
Параметр Endianness формата : Big
Идентификатор кодека : 2000
Продолжительность : 1 ч. 48 м.
Вид битрейта : Постоянный
Битрейт : 192 Кбит/сек
Каналы : 2 канала
Расположение каналов : Front: L R
Частота : 48,0 КГц
Битовая глубина : 16 бит
Метод сжатия : С потерями
Размер потока : 150 Мбайт (10%)
Выравнивание : Разделение по промежуткам
Продолжительность промежутка : 42 мс. (1,00 видеокадр)
Время предзагрузки промежутка : 500 мс.
Заголовок : Профессиональный (многоголосый закадровый) Культура
Аудио #2
Идентификатор : 2
Формат : AC-3
Формат/Информация : Audio Coding 3
Расширение режима : CM (complete main)
Параметр Endianness формата : Big
Идентификатор кодека : 2000
Продолжительность : 1 ч. 48 м.
Вид битрейта : Постоянный
Битрейт : 192 Кбит/сек
Каналы : 1 канал
Расположение каналов : Front: C
Частота : 48,0 КГц
Битовая глубина : 16 бит
Метод сжатия : С потерями
Размер потока : 150 Мбайт (10%)
Выравнивание : Разделение по промежуткам
Продолжительность промежутка : 42 мс. (1,00 видеокадр)
Время предзагрузки промежутка : 500 мс.
Заголовок : Итальянский

Скриншоты


[teatrix.ru].t5875.torrent 
Торрент: Зарегистрирован [ 2015-10-10 09:49 ] · 75780F4FF614B6E4A04953B4180D55D9A3381535

Скачать .torrent

Скачать

15 KB

Статус: проверено
Скачан: 0 раз
Размер: 1.45 GB
terms.php



Быстрый ответ

Имя:

      
Для отправки сообщений необходимо включить JavaScript
Показать сообщения:    

Текущее время: 06-Дек 22:48

Часовой пояс: UTC + 3


Вы можете начинать темы
Вы можете отвечать на сообщения
Вы не можете редактировать свои сообщения
Вы не можете удалять свои сообщения
Вы не можете голосовать в опросах
Вы не можете прикреплять файлы к сообщениям
Вы можете скачивать файлы