Роз, это Париж / Rose, c'est Paris / Rose wie Paris (Серж Брэмли / Serge Bramly) [2010, Франция, драма, мистика, сюрреализм, эротика, DVDRip-AVC] + Sub (Rus, Eng, Ger) + Original Fre


Статистика раздачи [Обновить пиров]
Размер:  1.46 GB   |    Зарегистрирован:  1 год 3 месяца   |    Скачан:  1 раз

Полного источника не было: 26 дней

 
   
 
 
 

[Цитировать]

Роз, это Париж
Rose, c'est Paris | Rose wie Paris
- -Страна: Франция
Студия: Productions Campagne Première
Жанр: драма, мистика, сюрреализм, эротика
Год выпуска: 2010
Продолжительность: 01:39:05
Перевод: субтитры
Cубтитры: русские (NacCr), английские, немецкие
Оригинальная аудиодорожка: французская-Режиссер: Серж Брэмли | Serge Bramly
Сценарий: Серж Брэмли-В ролях: Инге ван Брюстэгем, Моника Беллуччи, Сигрид Буази, Сабина Бэйл, Луиз Бургуан, Вёрджил Брэмли, Кристина Брандстром, Наоми Кэмпбелл, Шарлотта Рэмплинг, Леа Сейду, Лемми Константин, Элишка Кросс, Мари Лоренс Де Рошфор, Матильда Ротшильд, Амандин Декруа, Энтони Делон, Ева Долл, Жак Файвел, Анна-Софи Франк, Валери Лемерсье, Элена Ногуэрра, Клара Понсо, Марианна Романелли, Анжель Сассиэль, Литиция Венеция Тарновска, Дани Вериссимо-Пети, Мишель Йео, Хелен Зиммер.-Описание: Это экстраординарное произведение искусства с трудом поддаётся классификации: удивительный симбиоз мистики, эротики, фотосессии, триллера и социально-культурной археологии Парижа, превращается в захватывающую историю разворачивающуюся на улицах, в кафе и кабаре, магазинах, музеях и других декорациях города; которая заставит завороженного зрителя с головой окунуться в эту удивительную мистерию, наполненную сюрреалистическими видениями, художественными фантомами, невидимыми манипуляциями, одержимостью, фетишем и навязчивыми идеями.
В фильме рассказывается история двух сестёр, одна из которых исчезает, а вторая сестра отправляется на поиски таинственно пропавшей. Что случилось с пропавшей сестрой? Заговор ли это? Жива ли она? Может это убийство, или самоубийство? И тысяча других маловероятных, но возможных вариантов развития этой истории.-Сэмпл- ______________________________________Возрастное ограничение: [16]-Качество видео: DVDRip
Формат видео: MKV
Видео: H.264/AVC | 720x384 (1.85:1) | 23.976 fps | 1 900 Kbps | 0.289 b/p
Аудио: французскмй язык | AC3 (2 ch (L+R) | 48.0 KHz | 192 kbps | 16 bits
Субтитры: русские (NacCr), английские, немецкие
Формат субтитров: softsub (SRT), prerendered (IDX+SUB)

MediaInfo

General
Unique ID                                : 243128823896426626411596365206629072442 (0xB6E8E881AB075E9F8A772D24B4533E3A)
Complete name                            : H:\Rose, c'est Paris (France, 2010)[DVDRip].mkv
Format                                   : Matroska
Format version                           : Version 2
File size                                : 1.46 GiB
Duration                                 : 1h 39mn
Overall bit rate                         : 2 110 Kbps
Encoded date                             : UTC 2015-04-22 18:29:49
Writing application                      : mkvmerge v6.5.0 ('Isn't she lovely') built on Oct 20 2013 12:50:05
Writing library                          : libebml v1.3.0 + libmatroska v1.4.1
Video
ID                                       : 1
Format                                   : AVC
Format/Info                              : Advanced Video Codec
Format profile                           : High@L4.0
Format settings, CABAC                   : Yes
Format settings, ReFrames                : 8 frames
Codec ID                                 : V_MPEG4/ISO/AVC
Duration                                 : 1h 39mn
Bit rate                                 : 1 917 Kbps
Width                                    : 720 pixels
Height                                   : 384 pixels
Display aspect ratio                     : 1.85:1
Frame rate mode                          : Constant
Frame rate                               : 23.976 fps
Color space                              : YUV
Chroma subsampling                       : 4:2:0
Bit depth                                : 8 bits
Scan type                                : Progressive
Bits/(Pixel*Frame)                       : 0.289
Stream size                              : 1.30 GiB (89%)
Writing library                          : x264 core 92 r1510 33d382a
Encoding settings                        : cabac=1 / ref=8 / deblock=1:-1:-1 / analyse=0x3:0x133 / me=umh / subme=9 / psy=1 / psy_rd=1.00:0.10 / mixed_ref=1 / me_range=24 / chroma_me=1 / trellis=2 / 8x8dct=1 / cqm=0 / deadzone=21,11 / fast_pskip=0 / chroma_qp_offset=-3 / threads=3 / sliced_threads=0 / nr=0 / decimate=1 / interlaced=0 / constrained_intra=0 / bframes=3 / b_pyramid=2 / b_adapt=2 / b_bias=0 / direct=3 / wpredb=1 / wpredp=2 / keyint=250 / keyint_min=25 / scenecut=40 / intra_refresh=0 / rc_lookahead=50 / rc=2pass / mbtree=1 / bitrate=1917 / ratetol=1.0 / qcomp=0.60 / qpmin=10 / qpmax=51 / qpstep=4 / cplxblur=20.0 / qblur=0.5 / ip_ratio=1.40 / aq=1:1.00
Default                                  : Yes
Forced                                   : No
Audio
ID                                       : 2
Format                                   : AC-3
Format/Info                              : Audio Coding 3
Mode extension                           : CM (complete main)
Format settings, Endianness              : Big
Codec ID                                 : A_AC3
Duration                                 : 1h 39mn
Bit rate mode                            : Constant
Bit rate                                 : 192 Kbps
Channel(s)                               : 2 channels
Channel positions                        : Front: L R
Sampling rate                            : 48.0 KHz
Bit depth                                : 16 bits
Compression mode                         : Lossy
Stream size                              : 136 MiB (9%)
Language                                 : French
Default                                  : Yes
Forced                                   : No
Text #1
ID                                       : 3
Format                                   : UTF-8
Codec ID                                 : S_TEXT/UTF8
Codec ID/Info                            : UTF-8 Plain Text
Title                                    : SRT
Language                                 : Russian
Default                                  : Yes
Forced                                   : No
Text #2
ID                                       : 4
Format                                   : VobSub
Muxing mode                              : zlib
Codec ID                                 : S_VOBSUB
Codec ID/Info                            : The same subtitle format used on DVDs
Title                                    : VobSub
Language                                 : English
Default                                  : No
Forced                                   : No
Text #3
ID                                       : 5
Format                                   : VobSub
Muxing mode                              : zlib
Codec ID                                 : S_VOBSUB
Codec ID/Info                            : The same subtitle format used on DVDs
Title                                    : VobSub
Language                                 : German
Default                                  : No
Forced                                   : No

СкриншотыСкриншот c названием фильма

Скриншоты фильма

Примечание (просьба прочитать)

«Rose, c'est Paris» - это совместный проект известного французского фотографа Беттины Реймс и художника, эссеиста Сержа Брэмли, который включает фотомонографию и фильм на DVD. Каждый из 1500 экземпляров книги-фильма пронумерован и подписан Беттиной Реймс и Сержом Брэмли, и сейчас являются библиографической редкостью.
«Ceci n’est pas un film» - это не фильм, - сообщают в начальных титрах создатели, а вслед за ними хочет подчеркнуть и автор релиза. Это не фильм в знакомом, привычном смысле, его однозначно почти невозможно классифицировать. В описании фильма об этом коротко, но довольно детально сказано.
Драма, мистика, сюрреализм, эротика, фотосессия, триллер – всё сплетено в очень тесный клубок, распутывание которого сопряжено с большим вниманием и терпением, и конечно же с уровнем эстетического восприятия даже подготовленного зрителя.
Хотя этот раздел трекера посещают в основном искушённые кинозрители, релизёр посчитал уместным это предупреждение.
[teatrix.ru].t5879.torrent 
Торрент: Зарегистрирован [ 2015-10-10 09:49 ] · 13416E30027E3CE1D1A43E1E9B9233B0446F9DE9

Скачать .torrent

Скачать

15 KB

Статус: проверено
Скачан: 1 раз
Размер: 1.46 GB
terms.php



Быстрый ответ

Имя:

      
Для отправки сообщений необходимо включить JavaScript
Показать сообщения:    

Текущее время: 19-Янв 16:03

Часовой пояс: UTC + 3


Вы можете начинать темы
Вы можете отвечать на сообщения
Вы не можете редактировать свои сообщения
Вы не можете удалять свои сообщения
Вы не можете голосовать в опросах
Вы не можете прикреплять файлы к сообщениям
Вы можете скачивать файлы