Послушай, Филип / Listen Up Philip (Алекс Росс Перри / Alex Ross Perry) [2014, США, драма, WEB-DLRip] Sub Rus + Original eng


Статистика раздачи [Обновить пиров]
Размер:  1.46 GB   |    Зарегистрирован:  1 год 1 месяц   |    Скачан:  1 раз

Полного источника не было: 3 месяца 2 дня

 
   
 
 
 

[Цитировать]

Послушай, Филип / Listen Up PhilipГод выпуска: 2014
Страна: США
Жанр: драма
Продолжительность: 01:49:25
Cубтитры: русские (Сергей Гиллан)
Оригинальная аудиодорожка: английский
Режиссер: Алекс Росс Перри / Alex Ross Perry
Сценарий: Алекс Росс Перри / Alex Ross Perry
Продюсер: Джошуа Блум / Joshua Blum, Тоби Хальбрукс / Toby Halbrooks, Джеймс М. Джонстон / James M. Johnston, Дэвид Лоури / David Lowery, Кэти Штерн / Katie Stern
Оператор: Шон Прайс Уильямс / Sean Price Williams
Композитор: Кигэн Девитт / Keegan DeWitt
В ролях: Джейсон Шварцман, Элизабет Мосс, Кристен Риттер, Жозефин де ла Буме, Джонатан Прайс, Джесс Вейкслер, Дри Хемингуэй, Кит Поулсон, Кейт Лин Шейл-Описание: Филип – молодой, успешный и невыносимо самовлюбленный писатель-мизантроп, ничуть не сомневающийся в своей гениальности. Даже негативная статья из Times – не повод для уныния: он по-прежнему убежден, что готовящаяся к печати книга говорит сама за себя и не нуждается ни в какой PR-кампании, как и сам Филип не нуждается в своей девушке, шумном городе, людях и вообще во всем, что не он сам. Его нарциссизм и невротичность отравляют жизнь всем вокруг. И когда кумир Филипа писатель Циммерман предлагает подопечному свой загородный дом, тот пытается сбежать от других, чтобы сосредоточиться на себе.-Рейтинг
Кинопоиск
IMDB-Качество: WEB-DLRip
Формат: AVI
Видео: XviD; 720x400 (16:9); 1516 Kbps; 23,976 fps; 0,220 bpp
Аудио: AC3; 384 Kbps; CBR; 6 ch; 48.0 KHz-

MI

Format : AVI
Format/Info : Audio Video Interleave
File size : 1.46 GiB
Duration : 1h 49mn
Overall bit rate : 1 910 Kbps
Writing application : VirtualDubMod 1.5.10.3 | www.virtualdub-fr.org || (build 2550/release)
Writing library : VirtualDubMod build 2550/release
Video
ID : 0
Format : MPEG-4 Visual
Format profile : Advanced Simple@L5
Format settings, BVOP : 1
Format settings, QPel : No
Format settings, GMC : No warppoints
Format settings, Matrix : Default (MPEG)
Codec ID : XVID
Codec ID/Hint : XviD
Duration : 1h 49mn
Bit rate : 1 517 Kbps
Width : 720 pixels
Height : 400 pixels
Display aspect ratio : 16:9
Frame rate : 23.976 fps
Color space : YUV
Chroma subsampling : 4:2:0
Bit depth : 8 bits
Scan type : Progressive
Compression mode : Lossy
Bits/(Pixel*Frame) : 0.220
Stream size : 1.16 GiB (79%)
Writing library : XviD 1.2.1 (UTC 2008-12-04)
Audio
ID : 1
Format : AC-3
Format/Info : Audio Coding 3
Mode extension : CM (complete main)
Format settings, Endianness : Big
Codec ID : 2000
Duration : 1h 49mn
Bit rate mode : Constant
Bit rate : 384 Kbps
Channel(s) : 6 channels
Channel positions : Front: L C R, Side: L R, LFE
Sampling rate : 48.0 KHz
Bit depth : 16 bits
Compression mode : Lossy
Stream size : 301 MiB (20%)
Alignment : Split accross interleaves
Interleave, duration : 42 ms (1.00 video frame)
Interleave, preload duration : 500 ms

Пример субтитров

971
00:58:18,210 --> 00:58:20,740
Я уже злюсь на себя.
972
00:58:20,770 --> 00:58:24,110
Потому что меня даже не рассраивает видеть такое.
973
00:58:24,140 --> 00:58:26,380
Я хочу, чтобы ты ушел и оставил меня.
974
00:58:26,410 --> 00:58:29,520
Не знаю, почему ты здесь, но мне не интересно,
так что можешь не рассказывать.
975
00:58:29,550 --> 00:58:32,720
Помнишь, когда мы просто хотели
976
00:58:32,750 --> 00:58:38,220
засыпать и просыпаться вместе каждый день?
977
00:58:38,260 --> 00:58:40,730
А сейчас мне наплевать, увижу ли я тебя снова.
978
00:58:40,760 --> 00:58:42,830
Уходи и не возвращайся,
979
00:58:42,860 --> 00:58:44,700
и хватит причинять мне боль.
980
00:58:49,670 --> 00:58:52,470
Меня попросили написать небольшой рассказ о фотографии.
981
00:58:52,840 --> 00:58:53,840
Кто?
982
00:58:55,440 --> 00:58:57,510
Ты бы разозлился, если бы я сказала.
983
00:58:57,540 --> 00:58:58,880
Разве ты не этого хочешь?
984
00:59:01,850 --> 00:59:03,550
Я не знаю, чего ты ждешь от меня.
985
00:59:04,590 --> 00:59:06,490
Раньше ты был полон энтузиазма.
986
00:59:07,600 --> 00:59:09,040
А сейчас ты жалок.
987
00:59:12,640 --> 00:59:14,340
Боюсь, это последний раз когда ты меня
988
00:59:14,380 --> 00:59:15,950
увидишь за долгое время.
989
01:00:02,840 --> 01:00:05,160
Эй.
Я тебя знаю.
990
01:00:05,200 --> 01:00:06,760
Знаешь где он?
991
01:00:07,180 --> 01:00:08,100
Нет.
992
01:00:10,730 --> 01:00:11,990
Ты что уже поселился тут?

Скриншоты



[teatrix.ru].t5880.torrent 
Торрент: Зарегистрирован [ 2015-10-10 09:49 ] · 51F0ADDF4F0CE5F0DD1B01D9A5437CB33A04B90D

Скачать .torrent

Скачать

15 KB

Статус: проверено
Скачан: 1 раз
Размер: 1.46 GB
terms.php



Быстрый ответ

Имя:

      
Для отправки сообщений необходимо включить JavaScript
Показать сообщения:    

Текущее время: 09-Дек 12:42

Часовой пояс: UTC + 3


Вы можете начинать темы
Вы можете отвечать на сообщения
Вы не можете редактировать свои сообщения
Вы не можете удалять свои сообщения
Вы не можете голосовать в опросах
Вы не можете прикреплять файлы к сообщениям
Вы можете скачивать файлы