Семейная хроника / Cronaca familiare (Валерио Дзурлини / Valerio Zurlini) [1962, Италия, драма, DVDRip] + Sub Rus + Original Ita


Статистика раздачи [Обновить пиров]
Размер:  1.37 GB   |    Зарегистрирован:  1 год 1 месяц   |    Скачан:  0 раз

Полного источника не было: Никогда

 
   
 
 
 

[Цитировать]

Семейная хроника / Cronaca familiare
Страна: Италия
Жанр: драма
Год выпуска: 1962
Продолжительность: 01:49:00
Перевод: Субтитры
Cубтитры: русские
Оригинальная аудиодорожка: итальянский
Режиссер: Валерио Дзурлини / Valerio Zurlini
В ролях: Марчелло Мастроянни/Marcello Mastroianni, Жак Перрен/Jacques Perrin, Сильви/Sylvie, Сальво Рандоне/Salvo Randone, Валерия Чанготтини/Valeria Ciangottini, Серена Вергано/Serena Vergano, Марко Гульельми/Marco Guglielmi, Франка Пасут/Franca Pasut, Миранда Кампа/Miranda Campa
Описание: «Семейная хроника» Валерио Дзурлини в 1962 году разделила венецианского «Золотого льва» с «Ивановым детством» Андрея Тарковского. Поль Веккиали предварял недавний показ фильма в Локарно на ретроспективе студии Titanus, где он сказал, что для него это самый красивый фильм величайшего итальянского автора.
«Семейная хроника» поставлена по одноименному роману Васко Пратолини. Это четвертая полнометражная картина Дзурлини, с Марчелло Мастроянни и Жаком Перреном в главных ролях. Они играют двух братьев, которые росли в разных семьях и встречаются много лет спустя, пытаясь преодолеть груз взаимных обид и травматичного прошлого, оставившего навсегда след в их жизни.
Доп. информация: Перевод – Антон Свинаренко.
Файл взят с Карагарги, за что благодарим EceAyhan.
Сэмпл: http://multi-up.com/1044975
Качество видео: DVDRip
Формат видео: AVI
Видео: XviD build 50 at 1592 kbps, 0.23 bit/pixel, 704x384 (1.83:1) at 25 fps
Аудио: AC3 Dolby Digital at 192 kbps, 1/0 (C) ch, 48 kHz
Формат субтитров: softsub (SRT)

MediaInfo

Формат : AVI
Формат/Информация : Audio Video Interleave
Размер файла : 1,37 Гбайт
Продолжительность : 1 ч. 49 м.
Общий поток : 1794 Кбит/сек
Программа кодирования : VirtualDubMod 1.5.10.2 (build 2540/release)
Библиотека кодирования : VirtualDubMod build 2540/release
Видео
Идентификатор : 0
Формат : MPEG-4 Visual
Профиль формата : Advanced Simple@L5
Параметр BVOP формата : 2
Параметр QPel формата : Нет
Параметр GMC формата : Без точки перехода
Параметр матрицы формата : Default (MPEG)
Идентификатор кодека : XVID
Идентификатор кодека/Подсказка : XviD
Продолжительность : 1 ч. 49 м.
Битрейт : 1592 Кбит/сек
Ширина : 704 пикс.
Высота : 384 пикс.
Соотношение сторон : 16:9
Частота кадров : 25,000 кадр/сек
Цветовое пространство : YUV
Подвыборка цветности : 4:2:0
Битовая глубина : 8 бит
Тип развёртки : Прогрессивная
Метод сжатия : С потерями
Бит/(Пиксели*Кадры) : 0.236
Размер потока : 1,21 Гбайт (89%)
Библиотека кодирования : XviD 1.2.1 (UTC 2008-12-04)
Аудио
Идентификатор : 1
Формат : AC-3
Формат/Информация : Audio Coding 3
Расширение режима : CM (complete main)
Идентификатор кодека : 2000
Продолжительность : 1 ч. 49 м.
Вид битрейта : Постоянный
Битрейт : 192 Кбит/сек
Канал(ы) : 1 канал
Расположение каналов : Front: C
Частота : 48,0 КГц
Битовая глубина : 16 бит
Метод сжатия : С потерями
Размер потока : 150 Мбайт (11%)
Выравнивание : Разделение по промежуткам
Продолжительность промежутка : 40 мс. (1,00 видеокадр)
Время предзагрузки промежутка : 500 ms

Фрагмент субтитров

355
00:37:59,107 --> 00:38:00,115
Какой она была?
356
00:38:04,639 --> 00:38:06,219
Очень красивой.
357
00:38:08,515 --> 00:38:09,460
А еще?
358
00:38:12,725 --> 00:38:14,821
Глаза у нее казались зелеными.
359
00:38:16,344 --> 00:38:18,428
Очень серьезный взгляд.
360
00:38:20,527 --> 00:38:22,565
Как у тебя,
когда ты в пинг-понг играешь.
361
00:38:22,961 --> 00:38:23,762
Правда?
362
00:38:24,438 --> 00:38:26,167
А каким я кажусь, когда играю?
363
00:38:27,565 --> 00:38:28,544
Отстраненным.
364
00:38:29,945 --> 00:38:31,382
Погруженным в собственные мысли.
365
00:38:32,619 --> 00:38:34,033
Не от мира сего.
366
00:38:36,020 --> 00:38:38,583
Так у нее глаза были зеленые,
или так просто казалось?
367
00:38:43,559 --> 00:38:44,617
Не знаю.
368
00:38:47,886 --> 00:38:49,130
А чем она занималась?
369
00:38:52,487 --> 00:38:53,499
Она жила.
370
00:38:54,668 --> 00:38:56,098
А потом умерла.
371
00:38:59,181 --> 00:39:01,798
А подробнее расскажешь?
372
00:39:03,514 --> 00:39:06,589
Как же мне ее любить,
если никто ничего не рассказывает?
373
00:39:13,245 --> 00:39:14,947
Она очень любила апельсины.
374
00:39:17,064 --> 00:39:18,423
И апельсиновое варенье?
375
00:39:19,002 --> 00:39:20,847
Наверное.

Скриншот c названием фильма

Скриншоты

[teatrix.ru].t5882.torrent 
Торрент: Зарегистрирован [ 2015-10-10 09:49 ] · CC36B6919BC9C079AA13B63C727181613EAD0E53

Скачать .torrent

Скачать

14 KB

Статус: проверено
Скачан: 0 раз
Размер: 1.37 GB
terms.php



Быстрый ответ

Имя:

      
Для отправки сообщений необходимо включить JavaScript
Показать сообщения:    

Текущее время: 05-Дек 15:33

Часовой пояс: UTC + 3


Вы можете начинать темы
Вы можете отвечать на сообщения
Вы не можете редактировать свои сообщения
Вы не можете удалять свои сообщения
Вы не можете голосовать в опросах
Вы не можете прикреплять файлы к сообщениям
Вы можете скачивать файлы