Кес / Kes (Кен Лоуч / Ken Loach) [1969, Великобритания, драма, BDRip-AVC] DVO (НТВ+) + AVO (Кузнецов) + Sub Eng + Original Eng


 

[Цитировать]

-Кес / Kes Страна: Великобритания
Жанр: драма
Год выпуска: 1969
Продолжительность: 1:51:07-Перевод: Профессиональный (двухголосый закадровый) |НТВ+|
Перевод: Авторский (одноголосый закадровый) |Сергей Кузнецов|
Cубтитры: английские
Оригинальная аудиодорожка: английский-Режиссер: Кен Лоуч / Ken Loach-В ролях-Дэвид Брэдли, Фредди Флетчер, Lynne Perrie, Колин Уэлланд, Брайан Гловер, Боб Боус, Bernard Atha, Лоуренс Боулд, Джои Кэй, Тед Кэрролл, Роберт Нэйлор, Agnes Drumgoon, Джордж Спид, Десмонд Гатри, Зои Сазерленд, The 4D Jones, Eric Bolderson, Джо Миллер, Берил Кэрролл, Джули Шекспир, Билл Дин, Джеффри Бэнкс, Джон Грэйсон, Duggie Brown, Тревор Хескет, Стивен Кросслэнд, Гарри Маркам, Дэвид Гловер, Фрэнк Нортон, Мартин Харли, Лесли Стрингер-Описание-История 12-летнего тинэйджера Билли Каспера, у которого нет друзей, над которым в школе издеваются сверстники и учителя. Он находит утешение, только когда обнаруживает сокола и решает заняться воспитанием ловчих птиц.-Качество видео: BDRip
Исходное видео: Blu-ray Remux-Контейнер: MKV-Видео: AVC, 1080х648 (1,667), ~4000 kbps, 23.976 fps,
Аудио: AC-3, 192 kbps, Dolby Digital, 2/0 (L,R) ch, 48 KHz |DVO|
Аудио: AC-3, 192 kbps, Dolby Digital, 2/0 (L,R) ch, 48 KHz |AVO|
Аудио: AC-3, 192 kbps, Dolby Digital, 1/0 (C) ch, 48 KHz |оригинал|
Формат субтитров: softsub (SRT)--

MediaInfox264

VIDEO ENCODING
------------------------------
Encoding video to: C:\Temp\0008.264
x264 Q19.0 1080x648 23.976fps (159864 frames)
avs4x26x.exe: -L x264_64.exe --crf 19.0 --preset veryslow --profile high --level 4.1 --ref 10 --aq-mode 3 --aq-strength 0.75 --deblock -3:-2 --merange 64 --bframes 12 --psy-rd 0.95:0.00 --subme 11 --keyint 240 --colorprim bt709 --transfer bt709 --colormatrix bt709 --vbv-bufsize 50000 --vbv-maxrate 62500 --partitions p8x8,b8x8,i4x4,i8x8 --sar 1:1 --output "C:\Temp\0008.264" "C:\Temp\0008.avs"
raw [info]: 1080x648p 1:1 @ 24000/1001 fps (cfr)
x264 [info]: using SAR=1/1
x264 [info]: using cpu capabilities: MMX2 SSE2Fast LZCNT
x264 [info]: profile High, level 4.1
x264 [info]: frame I:792 Avg QP:16.79 size:108905
x264 [info]: frame P:33232 Avg QP:20.46 size: 41641
x264 [info]: frame B:125840 Avg QP:23.49 size: 15335
x264 [info]: consecutive B-frames: 1.0% 1.3% 6.6% 21.3% 18.5% 48.2% 1.9% 0.4% 0.3% 0.1% 0.1% 0.2% 0.1%
x264 [info]: mb I I16..4: 8.4% 75.0% 16.6%
x264 [info]: mb P I16..4: 0.5% 8.5% 0.8% P16..4: 32.5% 37.0% 12.3% 0.0% 0.0% skip: 8.4%
x264 [info]: mb B I16..4: 0.0% 2.1% 0.1% B16..8: 37.8% 16.3% 3.0% direct: 5.7% skip:34.9% L0:44.3% L1:45.5% BI:10.3%
x264 [info]: 8x8 transform intra:89.0% inter:63.9%
x264 [info]: direct mvs spatial:100.0% temporal:0.0%
x264 [info]: coded y,uvDC,uvAC intra: 91.5% 81.0% 51.2% inter: 29.0% 20.3% 2.5%
x264 [info]: i16 v,h,dc,p: 26% 22% 3% 48%
x264 [info]: i8 v,h,dc,ddl,ddr,vr,hd,vl,hu: 8% 8% 9% 10% 14% 13% 14% 11% 12%
x264 [info]: i4 v,h,dc,ddl,ddr,vr,hd,vl,hu: 12% 10% 5% 9% 15% 14% 13% 11% 12%
x264 [info]: i8c dc,h,v,p: 37% 25% 18% 20%
x264 [info]: Weighted P-Frames: Y:10.3% UV:5.9%
x264 [info]: ref P L0: 38.2% 9.9% 18.4% 7.7% 7.0% 5.1% 5.0% 2.7% 2.9% 2.5% 0.5% 0.0%
x264 [info]: ref B L0: 76.5% 9.5% 4.8% 2.7% 2.0% 1.8% 1.5% 0.8% 0.4%
x264 [info]: ref B L1: 95.1% 4.9%
x264 [info]: kb/s:4079.19
Формат : Matroska
Версия формата : Version 2
Размер файла : 3,62 Гбайт
Продолжительность : 1 ч. 51 м.
Общий поток : 4658 Кбит/сек
Название фильма : Кес / Kes _ 1969
Дата кодирования : UTC 2015-04-22 13:27:58
Программа кодирования : mkvmerge v7.8.0 ('River Man') 32bit built on Apr 3 2015 12:11:22
Библиотека кодирования : libebml v1.3.1 + libmatroska v1.4.2
Видео
Идентификатор : 1
Формат : AVC
Формат/Информация : Advanced Video Codec
Профиль формата : High@L4.1
Параметр CABAC формата : Да
Параметр ReFrames формата : 10 кадров
Идентификатор кодека : V_MPEG4/ISO/AVC
Продолжительность : 1 ч. 51 м.
Битрейт : 3989 Кбит/сек
Ширина : 1080 пикселей
Высота : 648 пикселей
Соотношение сторон : 1,667
Частота кадров : 23,976 кадра/сек
Цветовое пространство : YUV
Субдискретизация насыщенности : 4:2:0
Битовая глубина : 8 бит
Тип развёртки : Прогрессивная
Бит/(Пиксели*Кадры) : 0.238
Размер потока : 3,10 Гбайт (86%)
Заголовок : Kes_BDRip_cw_RGTru
Библиотека кодирования : x264 core 146 r2538 121396c
Настройки программы : cabac=1 / ref=10 / deblock=1:-3:-2 / analyse=0x3:0x113 / me=umh / subme=11 / psy=1 / psy_rd=0.95:0.00 / mixed_ref=1 / me_range=64 / chroma_me=1 / trellis=2 / 8x8dct=1 / cqm=0 / deadzone=21,11 / fast_pskip=1 / chroma_qp_offset=-2 / threads=4 / lookahead_threads=1 / sliced_threads=0 / nr=0 / decimate=1 / interlaced=0 / bluray_compat=0 / constrained_intra=0 / bframes=12 / b_pyramid=2 / b_adapt=2 / b_bias=0 / direct=3 / weightb=1 / open_gop=0 / weightp=2 / keyint=240 / keyint_min=23 / scenecut=40 / intra_refresh=0 / rc_lookahead=60 / rc=crf / mbtree=1 / crf=19.0 / qcomp=0.60 / qpmin=0 / qpmax=69 / qpstep=4 / vbv_maxrate=62500 / vbv_bufsize=50000 / crf_max=0.0 / nal_hrd=none / filler=0 / ip_ratio=1.40 / aq=3:0.75
Язык : English
Default : Да
Forced : Нет
Основные цвета : BT.709-5, BT.1361, IEC 61966-2-4, SMPTE RP177
Характеристики трансфера : BT.709-5, BT.1361
Коэффициенты матрицы : BT.709-5, BT.1361, IEC 61966-2-4 709, SMPTE RP177
Аудио #1
Идентификатор : 2
Формат : AC-3
Формат/Информация : Audio Coding 3
Расширение режима : CM (complete main)
Параметр Endianness формата : Big
Идентификатор кодека : A_AC3
Продолжительность : 1 ч. 51 м.
Вид битрейта : Постоянный
Битрейт : 192 Кбит/сек
Каналы : 2 канала
Расположение каналов : Front: L R
Частота : 48,0 КГц
Битовая глубина : 16 бит
Метод сжатия : С потерями
Размер потока : 153 Мбайт (4%)
Заголовок : DVO НТВ+
Язык : Russian
Default : Да
Forced : Нет
Аудио #2
Идентификатор : 3
Формат : AC-3
Формат/Информация : Audio Coding 3
Расширение режима : CM (complete main)
Параметр Endianness формата : Big
Идентификатор кодека : A_AC3
Продолжительность : 1 ч. 51 м.
Вид битрейта : Постоянный
Битрейт : 192 Кбит/сек
Каналы : 2 канала
Расположение каналов : Front: L R
Частота : 48,0 КГц
Битовая глубина : 16 бит
Метод сжатия : С потерями
Размер потока : 153 Мбайт (4%)
Заголовок : AVO С.Кузнецов
Язык : Russian
Default : Нет
Forced : Нет
Аудио #3
Идентификатор : 4
Формат : AC-3
Формат/Информация : Audio Coding 3
Расширение режима : CM (complete main)
Параметр Endianness формата : Big
Идентификатор кодека : A_AC3
Продолжительность : 1 ч. 51 м.
Вид битрейта : Постоянный
Битрейт : 192 Кбит/сек
Каналы : 1 канал
Расположение каналов : Front: C
Частота : 48,0 КГц
Битовая глубина : 16 бит
Метод сжатия : С потерями
Размер потока : 153 Мбайт (4%)
Заголовок : Оригинал / Original
Язык : English
Default : Нет
Forced : Нет
Текст
Идентификатор : 5
Формат : UTF-8
Идентификатор кодека : S_TEXT/UTF8
Идентификатор кодека/Информация : UTF-8 Plain Text
Язык : English
Default : Нет
Forced : НетСкриншотыСравнение с исходником Рип-- БД



Показать сообщения:    

Текущее время: 04-Дек 13:15

Часовой пояс: UTC + 3


Вы не можете начинать темы
Вы не можете отвечать на сообщения
Вы не можете редактировать свои сообщения
Вы не можете удалять свои сообщения
Вы не можете голосовать в опросах
Вы не можете прикреплять файлы к сообщениям
Вы не можете скачивать файлы