Возрождение жизни / A Rose Reborn (Пак Чхан Ук / Park Chan Wook) [2014, Италия, драма, короткий метр, WEB-DLRip 400p] Rus Subs + Original


Статистика раздачи [Обновить пиров]
Размер:  306 MB   |    Зарегистрирован:  1 год 1 месяц   |    Скачан:  0 раз

Полного источника не было: Никогда

 
   
 
 
 

[Цитировать]

Возрождение жизни / A Rose Reborn
Страна: Италия
Жанр: драма
Год выпуска: 2014
Продолжительность: 00:19:25
Перевод: субтитры (М. Коновалов)
Cубтитры: русские
Оригинальная аудиодорожка: английский
Режиссер: Пак Чхан Ук / Park Chan Wook
В ролях: Джек Хьюстон, Дэниэл Ву, Оттавиано Блитч, Антонио Браккяни, Тони Чунг, Сальваторе Кристьяно, Петр Чайковский, Анжело Дидженио, Дэнни Доденц, Алекс Дорантес и др.
Описание: Ген. директор одной компании отправляется на встречу с таинственным миллиардером...
Доп. информация: Короткометражный фильм модного дома "Ermenegildo Zegna".
Sample

Работа с видео: whip93
Качество видео: WEB-DLRip
Формат видео: AVI
Видео: 720x400, 25 fps, XviD build 65 ~2000 kbps avg, 0.278 bit/pixel
Аудио: 44 kHz, AC3 Dolby Digital, 2/0 (L,R) ch, ~192 kbps
Формат субтитров: softsub (SRT)

Пример субтитров

13
00:01:16,044 --> 00:01:17,076
Так поступают китайцы.
14
00:01:18,004 --> 00:01:21,032
Кроме того, проект "Яйцо" - ваш детище.
15
00:01:21,044 --> 00:01:22,096
Никто не является более квалифицированным.
16
00:01:23,008 --> 00:01:25,044
Фамилия президента - Лу.
17
00:01:25,056 --> 00:01:26,112
В любом случае, его личность ...
18
00:01:27,024 --> 00:01:28,026
Или ее ...
19
00:01:29,052 --> 00:01:30,064
является загадкой.
20
00:01:30,076 --> 00:01:32,128
Ходят слухи, что Лу любит загадки,
21
00:01:33,004 --> 00:01:35,010
и очень уважает учтивых людей.
22
00:01:36,012 --> 00:01:38,036
Его описывают, как "уникального" человека ...
23
00:01:38,048 --> 00:01:39,060
Или её.
24
00:01:39,072 --> 00:01:42,078
Мы уже попросили о встрече, поэтому ожидаем в ближайшее время услышать ответ ...
25
00:01:43,092 --> 00:01:44,144
Желаю удачи, Стивен.
26
00:01:54,076 --> 00:01:58,080
Послушайте, Джон, я даже не надеялся на их понимание, но вы ...
27
00:01:58,092 --> 00:02:01,116
вы же знаете, что я развиваю эту технологию не для того, чтобы разбогатеть.
28
00:02:02,028 --> 00:02:03,032
Она - моя жизнь.
29
00:02:04,068 --> 00:02:07,152
Вы хотите, чтобы я отдал её какому-то китайскому миллиардеру, о котором я даже никогда не слышал?
30
00:02:10,008 --> 00:02:10,100
Стивен ...
31
00:02:12,012 --> 00:02:14,016
Вы ведь не собираетесь на встречу в этом?
32
00:02:20,024 --> 00:02:20,108
Вайоминг?
33
00:02:21,002 --> 00:02:22,098
Но я думал, что это китайская компания.

MediaInfo

General
Complete name : D:\Фильмы\A Rose Reborn 2014 whip93\A.Rose.Reborn.2014.WEB-DLRip.whip93.avi
Format : AVI
Format/Info : Audio Video Interleave
File size : 306 MiB
Duration : 19mn 24s
Overall bit rate : 2 200 Kbps
Writing application : VirtualDubMod 1.5.10.3 | www.virtualdub-fr.org || (build 2550/release)
Writing library : VirtualDubMod build 2550/release
Video
ID : 0
Format : MPEG-4 Visual
Format profile : Advanced Simple@L5
Format settings, BVOP : 1
Format settings, QPel : No
Format settings, GMC : No warppoints
Format settings, Matrix : Default (MPEG)
Codec ID : XVID
Codec ID/Hint : XviD
Duration : 19mn 24s
Bit rate : 1 999 Kbps
Width : 720 pixels
Height : 400 pixels
Display aspect ratio : 16:9
Frame rate : 25.000 fps
Color space : YUV
Chroma subsampling : 4:2:0
Bit depth : 8 bits
Scan type : Progressive
Compression mode : Lossy
Bits/(Pixel*Frame) : 0.278
Stream size : 278 MiB (91%)
Writing library : XviD 65
Audio
ID : 1
Format : AC-3
Format/Info : Audio Coding 3
Mode extension : CM (complete main)
Format settings, Endianness : Big
Codec ID : 2000
Duration : 19mn 24s
Bit rate mode : Constant
Bit rate : 192 Kbps
Channel(s) : 2 channels
Channel positions : Front: L R
Sampling rate : 44.1 KHz
Bit depth : 16 bits
Compression mode : Lossy
Stream size : 26.7 MiB (9%)
Alignment : Split accross interleaves
Interleave, duration : 40 ms (1.00 video frame)
Interleave, preload duration : 500 ms

Скриншоты

[teatrix.ru].t5887.torrent 
Торрент: Зарегистрирован [ 2015-10-10 09:49 ] · B66DF9CB986DBCA8EEEEA770CA1B166AA7D31AB9

Скачать .torrent

Скачать

13 KB

Статус: проверено
Скачан: 0 раз
Размер: 306 MB
terms.php



Быстрый ответ

Имя:

      
Для отправки сообщений необходимо включить JavaScript
Показать сообщения:    

Текущее время: 04-Дек 21:23

Часовой пояс: UTC + 3


Вы можете начинать темы
Вы можете отвечать на сообщения
Вы не можете редактировать свои сообщения
Вы не можете удалять свои сообщения
Вы не можете голосовать в опросах
Вы не можете прикреплять файлы к сообщениям
Вы можете скачивать файлы