Приказы / Les ordres (Мишель Бро / Michel Brault) [1974, Канада, драма, исторический, политический, DVDRip] + Sub Rus + Original Fre


Статистика раздачи [Обновить пиров]
Размер:  1.37 GB   |    Зарегистрирован:  1 год 2 месяца   |    Скачан:  0 раз

Полного источника не было: Никогда

 
   
 
 
 

[Цитировать]

Приказы / Les ordres
Страна: Канада
Жанр: драма, исторический, политический
Год выпуска: 1974
Продолжительность: 01:47:33
Перевод: Субтитры
Cубтитры: русские
Оригинальная аудиодорожка: французский, английский
Режиссер: Мишель Бро / Michel Brault
В ролях: Элен Луазель/Hélène Loiselle, Жан Лапойнт/Jean Lapointe, Ги Прово/Guy Provost, Клод Готье/Claude Gauthier, Луиз Форестье/Louise Forestier, Луиз Прат/Louise Pratte, Мартин Прат/Martine Pratte, Моник Прат/Monique Pratte, Амулет Гарно/Amulette Garneau, Луиз Латраверс/Louise Latraverse, Софи Клеман/Sophie Clément
Описание: Однажды октябрьским утром 1970 года Клермон Б., Мари Б., доктор Жан-Мари Б., Ришар Г. и ещё 450 человек, не сделав ничего дурного, попали под арест. Мишель Бро снял кафкианский фильм об арестах гигантского масштаба цинизма, когда людей без предъявления обвинений и любых бумаг на арест и обыск жилища, почти как на конвейере, десятками арестовывали и отвозили в тюрьму. Арестовывали их в плановом порядке, даже просто тех, кто попадался под горячую руку. Это было время Октябрьского кризиса в Квебеке, когда активисты Фронта освобождения Квебека выкрали двух политических деятелей (дело Ляпорта), а премьер-министр ввёл Положение о военных мерах. Фильм Бро основан на реальных свидетельствах жертв этого положения.
Доп. информация: Перевод – daft-digger, дополнительный тайминг и подготовка субтитров – alex-kin.
Файл взят с Карагарги, за что благодарим Zuma.
Фильм переведен специально для показа цикла «Неизвестные 70-е» в киноклубе Cineticle (Киев).
Сэмпл: http://multi-up.com/1037630
Качество видео: DVDRip
Формат видео: AVI
Видео: XviD build 46 at 1635 kbps, 0.21 bit/pixel, 720x448 (1.61:1) at 23.976 fps
Аудио: MPEG Layer 3 at 170.54 kbps, 2 ch, 48 kHz
Формат субтитров: softsub (SRT)

MediaInfo

Формат : AVI
Формат/Информация : Audio Video Interleave
Размер файла : 1,37 Гбайт
Продолжительность : 1 ч. 47 м.
Общий поток : 1819 Кбит/сек
Программа кодирования : VirtualDubMod 1.5.4.1 (build 2178/release)
Библиотека кодирования : VirtualDubMod build 2178/release
Видео
Идентификатор : 0
Формат : MPEG-4 Visual
Профиль формата : Advanced Simple@L5
Параметр BVOP формата : 1
Параметр QPel формата : Нет
Параметр GMC формата : Без точки перехода
Параметр матрицы формата : Выборочная
Идентификатор кодека : XVID
Идентификатор кодека/Подсказка : XviD
Продолжительность : 1 ч. 47 м.
Битрейт : 1636 Кбит/сек
Ширина : 720 пикс.
Высота : 448 пикс.
Соотношение сторон : 1,607
Частота кадров : 23,976 кадр/сек
Цветовое пространство : YUV
Подвыборка цветности : 4:2:0
Битовая глубина : 8 бит
Тип развёртки : Прогрессивная
Метод сжатия : С потерями
Бит/(Пиксели*Кадры) : 0.212
Размер потока : 1,23 Гбайт (90%)
Библиотека кодирования : XviD 1.1.2 (UTC 2006-11-01)
Аудио
Идентификатор : 1
Формат : MPEG Audio
Версия формата : Version 1
Профиль формата : Layer 3
Режим : Joint stereo
Расширение режима : MS Stereo
Идентификатор кодека : 55
Идентификатор кодека/Подсказка : MP3
Продолжительность : 1 ч. 47 м.
Вид битрейта : Переменный
Битрейт : 171 Кбит/сек
Номинальный битрейт : 192 Кбит/сек
Канал(ы) : 2 канала(ов)
Частота : 48,0 КГц
Метод сжатия : С потерями
Размер потока : 131 Мбайт (9%)
Выравнивание : Соединение по промежуткам
Продолжительность промежутка : 24 мс. (0,58 видеокадр)
Время предзагрузки промежутка : 499 ms
Библиотека кодирования : LAME3.97b
Настройки программы : -m j -V 4 -q 2 -lowpass 18.6 --abr 192
Язык : French

Фрагмент субтитров

556
00:52:05,789 --> 00:52:07,086
Идем дальше.
557
00:52:16,733 --> 00:52:17,961
Садитесь здесь.
558
00:52:27,077 --> 00:52:30,274
Соберите свои личные вещи...
559
00:52:30,380 --> 00:52:32,712
кольца, часы,
560
00:52:32,782 --> 00:52:35,250
бусы, сумки.
561
00:52:35,585 --> 00:52:37,815
Их вам вернут позже.
562
00:52:41,691 --> 00:52:45,354
Мадемуазель Клодет Дюссо,
пожалуйста.
563
00:52:55,872 --> 00:52:56,896
Следующий.
564
00:53:04,781 --> 00:53:06,874
Вам нельзя меня брить.
565
00:53:07,384 --> 00:53:08,384
Это же ампу...
566
00:53:08,818 --> 00:53:10,251
Сидеть!
567
00:53:24,534 --> 00:53:28,095
Что ж, видимо, у меня нет выбора.
568
00:55:25,055 --> 00:55:27,216
Нет, я не боялась.
569
00:55:27,857 --> 00:55:30,621
И не думаю, что другие боялись.
570
00:55:31,661 --> 00:55:33,754
Страх пришел позже.
571
00:55:34,731 --> 00:55:39,361
Ты мало что ощущаешь,
тебя гонят по кругу.
572
00:55:39,536 --> 00:55:42,903
Водят из одного места в другое.
573
00:55:43,073 --> 00:55:46,975
Не говорят, что ведут нас в лифт.
Просто делают это.
574
00:55:47,577 --> 00:55:49,010
А ты ждешь.
575
00:55:50,113 --> 00:55:52,047
Можешь прождать 10 минут.
576
00:56:31,454 --> 00:56:32,853
Номер девять.

Скриншот c названием фильма

Скриншоты

[teatrix.ru].t5888.torrent 
Торрент: Зарегистрирован [ 2015-10-10 09:49 ] · F19968AD2D2F169A5117C47ABDC287296765F4F7

Скачать .torrent

Скачать

14 KB

Статус: проверено
Скачан: 0 раз
Размер: 1.37 GB
terms.php



Быстрый ответ

Имя:

      
Для отправки сообщений необходимо включить JavaScript
Показать сообщения:    

Текущее время: 11-Дек 05:23

Часовой пояс: UTC + 3


Вы можете начинать темы
Вы можете отвечать на сообщения
Вы не можете редактировать свои сообщения
Вы не можете удалять свои сообщения
Вы не можете голосовать в опросах
Вы не можете прикреплять файлы к сообщениям
Вы можете скачивать файлы