Мамочка и шлюха / La maman et la putain / The Mother and the Whore (Жан Эсташ / Jean Eustache) [1973, Франция, драма, HDTVRip] MVO (Омикрон) + AVO (Кузнецов) + Sub Rus, Eng + Original Fre


Статистика раздачи [Обновить пиров]
Размер:  2.75 GB   |    Зарегистрирован:  1 год 1 месяц   |    Скачан:  0 раз

Полного источника не было: Никогда

 
   
 
 
 

[Цитировать]

Мамочка и шлюха / La maman et la putain / The Mother and the Whore
Страна: Франция
Жанр: драма
Год выпуска: 1973
Продолжительность: 03:27:56
Перевод: Профессиональный (многоголосый закадровый) - студия Омикрон
Перевод: Авторский (одноголосый закадровый) - Сергей Кузнецов
Cубтитры: русские (Дарья Розеншайн), английские
Оригинальная аудиодорожка: французский

Режиссер: Жан Эсташ / Jean Eustache
В ролях: Бернадет Лафон, Жан-Пьер Лео, Франсуаза Лебрун, Изабель Вайнгартен, Жак Ренар, Жан-Ноэль Пик, Жан-Клод Бьет, Пьер Коттрелл, Жесса Дарье, Жан Душе
Описание: Фильм рассказывает о том, что стало с поколением французской молодежи, пережившей "Красный Май" 1968 года. Жан Эсташ попытался максимально приблизить фильм к реальной жизни, следуя уже сложившейся кинематографической традиции французской новой волны. На протяжении фильма практически отсутствуют события, действия как такового в фильме нет. Психологические переживания, находящиеся в центре внимания режиссера, передаются через долгие диалоги и монологи. Главный герой Александр (Жан-Пьер Лео) — разочарованный в жизни, тоскующий безработный, бывший бунтарь и участник молодёжной революции 1968 года. Александр — воплощение поражения, разочарования, апатии, отчаяния и одиночества целого поколения взбунтовавшегося против старшего поколения, капитализма и государства
Качество видео: HDTVRip - HDTVRip 1080p - DVD9 (Custom)
Формат видео: AVI
Видео: 656x480 (1.37:1), 25 fps, XviD build 73 ~1307 kbps avg, 0.17 bit/pixel
Аудио: 48 kHz, AC3 Dolby Digital, 2/0 (L,R) ch, ~192 kbps - многоголосый
отдельными файлами:
Аудио: 48 kHz, AC3 Dolby Digital, 2/0 (L,R) ch, ~192 kbps - Кузнецов
Аудио: 48 kHz, AC3 Dolby Digital, 2/0 (L,R) ch, ~192 kbps - оригинал

MediaInfo

Общее
Полное имя : H:\La.maman.et.la.putain.1973.hdtvrip_[2.18]_[teko]\La.maman.et.la.putain.1973.hdtvrip_[2.18].avi
Формат : AVI
Формат/Информация : Audio Video Interleave
Профиль формата : OpenDML
Размер файла : 2,19 Гбайт
Продолжительность : 3 ч. 27 м.
Общий поток : 1506 Кбит/сек
Программа кодирования : VirtualDubMod 1.5.10.3 | www.virtualdub-fr.org || (build 2550/release)
Библиотека кодирования : VirtualDubMod build 2550/release
Видео
Идентификатор : 0
Формат : MPEG-4 Visual
Профиль формата : Advanced Simple@L5
Параметр BVOP формата : 1
Параметр QPel формата : Нет
Параметр GMC формата : Без точки перехода
Параметр матрицы формата : Выборочная
Идентификатор кодека : XVID
Идентификатор кодека/Подсказка : XviD
Продолжительность : 3 ч. 27 м.
Битрейт : 1302 Кбит/сек
Ширина : 656 пикселей
Высота : 480 пикселей
Соотношение сторон : 4:3
Частота кадров : 25,000 кадров/сек
Цветовое пространство : YUV
Субдискретизация насыщенности : 4:2:0
Битовая глубина : 8 бит
Тип развёртки : Прогрессивная
Метод сжатия : С потерями
Бит/(Пиксели*Кадры) : 0.165
Размер потока : 1,89 Гбайт (86%)
Библиотека кодирования : XviD 73
Аудио
Идентификатор : 1
Формат : AC-3
Формат/Информация : Audio Coding 3
Расширение режима : CM (complete main)
Параметр Endianness формата : Big
Идентификатор кодека : 2000
Продолжительность : 3 ч. 27 м.
Вид битрейта : Постоянный
Битрейт : 192 Кбит/сек
Каналы : 2 канала
Расположение каналов : Front: L R
Частота : 48,0 КГц
Битовая глубина : 16 бит
Метод сжатия : С потерями
Задержка видео : 200 мс.
Размер потока : 286 Мбайт (13%)
Выравнивание : Разделение по промежуткам
Продолжительность промежутка : 40 мс. (1,00 видеокадр)
Время предзагрузки промежутка : 500 мс.

Скриншоты

[teatrix.ru].t5889.torrent 
Торрент: Зарегистрирован [ 2015-10-10 09:49 ] · 846D259E0D8F0DA43CD51EC54A97C49E14EC6928

Скачать .torrent

Скачать

15 KB

Статус: проверено
Скачан: 0 раз
Размер: 2.75 GB
terms.php



Быстрый ответ

Имя:

      
Для отправки сообщений необходимо включить JavaScript
Показать сообщения:    

Текущее время: 08-Дек 09:03

Часовой пояс: UTC + 3


Вы можете начинать темы
Вы можете отвечать на сообщения
Вы не можете редактировать свои сообщения
Вы не можете удалять свои сообщения
Вы не можете голосовать в опросах
Вы не можете прикреплять файлы к сообщениям
Вы можете скачивать файлы