Инкуб / Incubus (Шеридан Джеймс Лунт / Sheridan James Lunt) [2010, Великобритания, мистицизм, романтика, анимация, гей-тема, короткий метр, HDRip-AVC]


 

[Цитировать]

Инкуб
Incubus- Страна: Великобритания
Жанр: мистицизм, романтика, анимация, гей-тема, короткий метр
Год выпуска: 2010
Продолжительность: 00:02:00
Перевод: Не требуется
Cубтитры: нет
Оригинальная аудиодорожка: музыкальное сопровождениеРежиссер: Шеридан Джеймс Лунт / Sheridan James Lunt
В ролях: анимация
Описание: Шеридан Джеймс Лунт – молодой аниматор из Бристоля, работающий в команде энтузиастов Piski Films, создающих фильмы на основе ярких образов и необычных повествований, зачастую на религиозные темы.
Инкуб в средневековых легендах распутный демон, ищущий сексуальных связей. Одинокого парня после полуночи посещает демон-любовник.
Доп. информация: На территории РФ возрастное ограничение 18+.
Участник Animation Film Festival, Rio de Janeiro, Brazil 2011; CineMe 4th anniversary, Bristol UK 2012.

Качество видео: HDRip-AVC
Формат видео: MKV
Видео: AVC (H.264), 1152x640 (16:9), 25 fps, ~2000 kbps avg, 0.109 bit/pixel
Аудио: AC3, 2 ch, 48 kHz, ~192.00 kbps avg

MediaInfo

Общее
Уникальный идентификатор : 250117897893567067009450746400882350882 (0xBC2AF475823C6FD690351051E9C4DB22)
Полное имя : E:\My Torrents 2\[apreder]MINI_MOVIES_09\[apreder]MM_Incubus(2010)HDRip.mkv
Формат : Matroska
Версия формата : Version 2
Размер файла : 31,5 Мбайт
Продолжительность : 2 м. 0 с.
Общий поток : 2202 Кбит/сек
Дата кодирования : UTC 2015-04-19 09:53:21
Программа кодирования : mkvmerge v7.8.0 ('River Man') 64bit built on Mar 27 2015 16:31:37
Библиотека кодирования : libebml v1.3.1 + libmatroska v1.4.2
Видео
Идентификатор : 1
Формат : AVC
Формат/Информация : Advanced Video Codec
Профиль формата : High@L4.1
Параметр CABAC формата : Да
Параметр ReFrames формата : 11 кадров
Идентификатор кодека : V_MPEG4/ISO/AVC
Продолжительность : 2 м. 0 с.
Битрейт : 2000 Кбит/сек
Ширина : 1152 пикселя
Высота : 640 пикселей
Соотношение сторон : 16:9
Режим частоты кадров : Постоянный
Частота кадров : 25,000 кадров/сек
Цветовое пространство : YUV
Субдискретизация насыщенности : 4:2:0
Битовая глубина : 8 бит
Тип развёртки : Прогрессивная
Бит/(Пиксели*Кадры) : 0.109
Размер потока : 28,2 Мбайт (89%)
Библиотека кодирования : x264 core 146 r2538 121396c
Настройки программы : cabac=1 / ref=11 / deblock=1:-1:-1 / analyse=0x3:0x133 / me=umh / subme=10 / psy=1 / psy_rd=1.00:0.15 / mixed_ref=1 / me_range=24 / chroma_me=1 / trellis=2 / 8x8dct=1 / cqm=0 / deadzone=21,11 / fast_pskip=1 / chroma_qp_offset=-3 / threads=6 / lookahead_threads=1 / sliced_threads=0 / nr=0 / decimate=1 / interlaced=0 / bluray_compat=0 / constrained_intra=0 / bframes=8 / b_pyramid=2 / b_adapt=2 / b_bias=0 / direct=3 / weightb=1 / open_gop=0 / weightp=2 / keyint=250 / keyint_min=25 / scenecut=40 / intra_refresh=0 / rc_lookahead=60 / rc=2pass / mbtree=1 / bitrate=2000 / ratetol=1.0 / qcomp=0.60 / qpmin=0 / qpmax=69 / qpstep=4 / cplxblur=20.0 / qblur=0.5 / vbv_maxrate=62500 / vbv_bufsize=78125 / nal_hrd=none / filler=0 / ip_ratio=1.40 / aq=1:1.00
Default : Да
Forced : Нет
Аудио
Идентификатор : 2
Формат : AC-3
Формат/Информация : Audio Coding 3
Расширение режима : CM (complete main)
Параметр Endianness формата : Big
Идентификатор кодека : A_AC3
Продолжительность : 2 м. 0 с.
Вид битрейта : Постоянный
Битрейт : 192 Кбит/сек
Каналы : 2 канала
Расположение каналов : Front: L R
Частота : 48,0 КГц
Битовая глубина : 16 бит
Метод сжатия : С потерями
Размер потока : 2,75 Мбайт (9%)
Default : Да
Forced : Нет

Скриншот c названием фильма

Скриншоты

Резервные скриншоты

-[2'227]



Показать сообщения:    

Текущее время: 05-Дек 03:31

Часовой пояс: UTC + 3


Вы не можете начинать темы
Вы не можете отвечать на сообщения
Вы не можете редактировать свои сообщения
Вы не можете удалять свои сообщения
Вы не можете голосовать в опросах
Вы не можете прикреплять файлы к сообщениям
Вы не можете скачивать файлы