Разомкнутый круг / The Broken Circle Breakdown (Феликс Ван Гроенгинен / Felix Van Groeningen) [2012 г., Бельгия, Нидерланды, драма, мелодрама, музыка, BDRip-AVC] DVO (R5) + Original Dut + Sub (Rus, Eng)


 

[Цитировать]

-Разомкнутый круг / The Broken Circle Breakdown Страна: Бельгия, Нидерланды
Студия: Menuet Producties, Topkapi Films
Жанр: Драма, мелодрама, музыка
Год выпуска: 2012
Продолжительность: 01:51:36-Перевод : Профессиональный (двухголосый, закадровый) R5
Оригинальная аудиодорожка: нидерландская
Cубтитры: русские, английские
Режиссер: Феликс Ван Гроенгинен / Felix Van Groeningen
В ролях: Йохан Хелденберг, Верле Батенс, Нелл Каттриссе, Герт Ван Рампелберг, Нилс Де Кастер, Робби Клейрен, Берт Хейсентрейт, Ян Бейвут, Софи Сенте, Рут Бекманс
Описание: Дидье играет в группе на банджо, живет в трейлере в бельгийской деревне и боготворит Америку как «землю свободы». Элис — владеет тату-салоном. Однажды они влюбляются с первого взгляда.-
Сэмпл: скачать-Релиз от -
Автор рипа: Elheym
Качество: BDRip-AVC (источник: / Blu-ray DUT [BROKEN_CIRCLE_BLUEBIRD] / 1080p)
Контейнер: MKV
Видео: 1148x488 (2.35:1), 23.976 fps, MPEG-4 AVC, ~1960 kbps avg, 0.146 bit/pixel
Аудио #1: Русский: AC3, 5.1, 48 kHz, ~384 Кбит/с | Профессиональный (двухголосый, закадровый) R5 |
Аудио #2: Нидерландский: AC3, 5.1, 48 kHz, ~448 Кбит/с | Оригинал |
Аудио #3: Украинский: АС3, 5.1, 48 kHz, ~448 Кбит/с | Профессиональный (многоголосый, закадровый) Цікава ідея | (отдельно)
Субтитры: русские (полные, форсированные [на песни]), английские (полные)
Главы: Присутствуют, сохранены оригинальные

MediaInfo

Уникальный идентификатор : 254058345751820482126384821294402076799 (0xBF21DB89BD5FC343BB25F28FC34F807F)
Полное имя : The.Broken.Circle.Breakdown.2012.DUAL.BDRip-AVC.x264.AC3.-HQCLUB.mkv
Формат : Matroska
Версия формата : Version 2
Размер файла : 2,18 Гбайт
Продолжительность : 1 ч. 51 м.
Общий поток : 2794 Кбит/сек
Дата кодирования : UTC 2015-04-16 00:10:19
Программа кодирования : mkvmerge v5.2.0 ('I can't explain') built on Dec 18 2011 18:12:03
Библиотека кодирования : libebml v1.2.3 + libmatroska v1.3.0
Attachements : Cover.png
Видео
Идентификатор : 1
Формат : AVC
Формат/Информация : Advanced Video Codec
Профиль формата : High@L4.0
Параметр CABAC формата : Да
Параметр ReFrames формата : 13 кадров
Идентификатор кодека : V_MPEG4/ISO/AVC
Продолжительность : 1 ч. 51 м.
Битрейт : 1960 Кбит/сек
Ширина : 1148 пикселей
Высота : 488 пикселей
Соотношение сторон : 2,35:1
Режим частоты кадров : Постоянный
Частота кадров : 24,000 кадра/сек
Цветовое пространство : YUV
Субдискретизация насыщенности : 4:2:0
Битовая глубина : 8 бит
Тип развёртки : Прогрессивная
Бит/(Пиксели*Кадры) : 0.146
Размер потока : 1,49 Гбайт (68%)
Заголовок : Разомкнутый круг / The Broken Circle Breakdown (2012) BDRip-AVC by HQCLUB [Elheym]
Библиотека кодирования : x264 core 146 r2538kMod 121396c
Настройки программы : cabac=1 / ref=13 / deblock=1:-3:0 / analyse=0x3:0x113 / me=umh / subme=11 / psy=1 / fade_compensate=0.00 / psy_rd=1.16:0.00 / mixed_ref=1 / me_range=32 / chroma_me=1 / trellis=2 / 8x8dct=1 / cqm=0 / deadzone=21,11 / fast_pskip=0 / chroma_qp_offset=-2 / threads=6 / lookahead_threads=1 / sliced_threads=0 / nr=0 / decimate=1 / interlaced=0 / bluray_compat=0 / constrained_intra=0 / fgo=0 / bframes=16 / b_pyramid=2 / b_adapt=2 / b_bias=0 / direct=3 / weightb=1 / open_gop=0 / weightp=2 / keyint=230 / keyint_min=23 / scenecut=40 / intra_refresh=0 / rc_lookahead=40 / rc=2pass / mbtree=0 / bitrate=1960 / ratetol=1.0 / qcomp=0.80 / qpmin=0 / qpmax=69 / qpstep=4 / cplxblur=20.0 / qblur=0.5 / vbv_maxrate=20000 / vbv_bufsize=25000 / nal_hrd=none / filler=0 / ip_ratio=1.40 / pb_ratio=1.30 / aq=3:0.67 / zones=154818,160700,b=0.34
Язык : Dutch
Default : Да
Forced : Нет
Основные цвета : BT.709
Характеристики трансфера : BT.709
Коэффициенты матрицы : BT.709
colour_range : Limited
Аудио #1
Идентификатор : 2
Формат : AC-3
Формат/Информация : Audio Coding 3
Расширение режима : CM (complete main)
Параметр Endianness формата : Big
Идентификатор кодека : A_AC3
Продолжительность : 1 ч. 51 м.
Вид битрейта : Постоянный
Битрейт : 384 Кбит/сек
Каналы : 6 каналов
Расположение каналов : Front: L C R, Side: L R, LFE
Частота : 48,0 КГц
Битовая глубина : 16 бит
Метод сжатия : С потерями
Размер потока : 307 Мбайт (14%)
Заголовок : АС3 5.1 @ 384 kbps - DVO, R5
Язык : Russian
Default : Нет
Forced : Нет
Аудио #2
Идентификатор : 3
Формат : AC-3
Формат/Информация : Audio Coding 3
Расширение режима : CM (complete main)
Параметр Endianness формата : Big
Идентификатор кодека : A_AC3
Продолжительность : 1 ч. 51 м.
Вид битрейта : Постоянный
Битрейт : 448 Кбит/сек
Каналы : 6 каналов
Расположение каналов : Front: L C R, Side: L R, LFE
Частота : 48,0 КГц
Битовая глубина : 16 бит
Метод сжатия : С потерями
Размер потока : 358 Мбайт (16%)
Заголовок : АС3 5.1 @ 448 kbps - Original
Язык : Dutch
Default : Нет
Forced : Нет
Текст #1
Идентификатор : 4
Формат : UTF-8
Идентификатор кодека : S_TEXT/UTF8
Идентификатор кодека/Информация : UTF-8 Plain Text
Заголовок : Full
Язык : Russian
Default : Нет
Forced : Нет
Текст #2
Идентификатор : 5
Формат : UTF-8
Идентификатор кодека : S_TEXT/UTF8
Идентификатор кодека/Информация : UTF-8 Plain Text
Заголовок : Forced [MountinFOX]
Язык : Russian
Default : Нет
Forced : Нет
Текст #3
Идентификатор : 6
Формат : UTF-8
Идентификатор кодека : S_TEXT/UTF8
Идентификатор кодека/Информация : UTF-8 Plain Text
Заголовок : Full
Язык : English
Default : Нет
Forced : Нет
Меню
00:00:00.000 : :Chapter 01
00:12:06.291 : :Chapter 02
00:21:00.666 : :Chapter 03
00:30:23.541 : :Chapter 04
00:38:17.875 : :Chapter 05
00:47:24.250 : :Chapter 06
00:57:40.541 : :Chapter 07
01:06:09.583 : :Chapter 08
01:16:51.541 : :Chapter 09
01:24:06.541 : :Chapter 10
01:33:29.583 : :Chapter 11
01:43:39.083 : :Chapter 12
01:51:36.833 : :Chapter 13

x264 log

x264 [info]: frame I:976 Avg QP:13.42 size: 62614
x264 [info]: frame P:35827 Avg QP:16.30 size: 20682
x264 [info]: frame B:123898 Avg QP:18.95 size: 6761
x264 [info]: consecutive B-frames: 2.4% 3.5% 8.6% 19.4% 19.2% 34.3% 5.7% 1.5% 1.4% 0.6% 0.7% 0.3% 0.3% 0.2% 0.3% 0.3% 1.3%
x264 [info]: ref P L0: 47.2% 8.1% 17.5% 6.7% 5.1% 3.7% 3.2% 1.8% 1.6% 1.4% 1.3% 1.2% 1.2% 0.2% 0.0%
x264 [info]: ref B L0: 74.4% 11.5% 5.2% 2.5% 1.8% 1.3% 1.1% 0.7% 0.6% 0.5% 0.4% 0.2%
x264 [info]: ref B L1: 92.3% 7.7%

Скриншоты

Сравнения с исходником

Источник- Рип-
Большое спасибо - MountinFOX - за форсированные субтитры.



Показать сообщения:    

Текущее время: 02-Дек 21:13

Часовой пояс: UTC + 3


Вы не можете начинать темы
Вы не можете отвечать на сообщения
Вы не можете редактировать свои сообщения
Вы не можете удалять свои сообщения
Вы не можете голосовать в опросах
Вы не можете прикреплять файлы к сообщениям
Вы не можете скачивать файлы