Мамочка / Mommy (Ксавье Долан / Xavier Dolan) [2014, Канада, драма, HDRip] [Fre Transfer] Dub


 

[Цитировать]

Мамочка / Mommy
Страна: Канада
Жанр: драма
Год выпуска: 2014
Продолжительность: 02:18:27
Перевод: Профессиональный (дублированный)
Cубтитры: нет
Оригинальная аудиодорожка: нет
Режиссер: Ксавье Долан / Xavier Dolan
В ролях: Анн Дорваль, Антуан-Оливье Пилон, Сюзанн Клеман, Патрик Уард, Александр Гойетт, Мишель Литюак, Изабель Нелисс, Пьер-Ив Кардинал, Вивиан Паскаль, Натали Амель-Руа и др.
Описание: Яркая и взбалмошная вдова Диана забирает из интерната сына-подростка и полна решимости начать новую жизнь. Со Стивом они бы жили душа в душу, но вспышки гнева импульсивного сына то и дело подрывают шаткое равновесие в семье. На подмогу приходит скромная заикающаяся соседка Кайла, и в доме на время воцаряется идиллия, но как долго это продлится?
Sample

Релиз: Scarabey
Качество видео: HDRip (исх. Mommy.2014.FRENCH.720p.BluRay.Mommy.2014.FRENCH-BDRip)
Формат видео: AVI
Видео: 688x384 (1.79:1), 23.976 fps, XviD build 73 ~1297 kbps avg, 0.20 bit/pixel
Аудио: 48 kHz, AC3 Dolby Digital, 2/0 (L,R) ch, ~192 kbps

MediaInfo

General
Complete name : D:\Фильмы\Mommy.2014.HDRip.avi
Format : AVI
Format/Info : Audio Video Interleave
File size : 1.45 GiB
Duration : 2h 18mn
Overall bit rate : 1 499 Kbps
Writing application : VirtualDubMod 1.5.10.3 | www.virtualdub-fr.org || (build 2550/release)
Writing library : VirtualDubMod build 2550/release
Video
ID : 0
Format : MPEG-4 Visual
Format profile : Advanced Simple@L5
Format settings, BVOP : 1
Format settings, QPel : No
Format settings, GMC : No warppoints
Format settings, Matrix : Custom
Codec ID : XVID
Codec ID/Hint : XviD
Duration : 2h 18mn
Bit rate : 1 298 Kbps
Width : 688 pixels
Height : 384 pixels
Display aspect ratio : 16:9
Frame rate : 23.976 fps
Color space : YUV
Chroma subsampling : 4:2:0
Bit depth : 8 bits
Scan type : Progressive
Compression mode : Lossy
Bits/(Pixel*Frame) : 0.205
Stream size : 1.25 GiB (87%)
Writing library : XviD 73
Audio
ID : 1
Format : AC-3
Format/Info : Audio Coding 3
Mode extension : CM (complete main)
Format settings, Endianness : Big
Codec ID : 2000
Duration : 2h 18mn
Bit rate mode : Constant
Bit rate : 192 Kbps
Channel(s) : 2 channels
Channel positions : Front: L R
Sampling rate : 48.0 KHz
Bit depth : 16 bits
Compression mode : Lossy
Stream size : 190 MiB (13%)
Alignment : Split accross interleaves
Interleave, duration : 42 ms (1.00 video frame)
Interleave, preload duration : 500 ms

Скриншоты




Показать сообщения:    

Текущее время: 10-Дек 13:50

Часовой пояс: UTC + 3


Вы не можете начинать темы
Вы не можете отвечать на сообщения
Вы не можете редактировать свои сообщения
Вы не можете удалять свои сообщения
Вы не можете голосовать в опросах
Вы не можете прикреплять файлы к сообщениям
Вы не можете скачивать файлы