Разомкнутый круг / The Broken Circle Breakdown (Феликс Ван Гроенгинен / Felix Van Groeningen) [2012 г., Бельгия, Нидерланды, драма, мелодрама, музыка, BDRip] DVO (R5) + Original Dut + Sub (Rus, Eng)


 

[Цитировать]

-Разомкнутый круг / The Broken Circle Breakdown Страна: Бельгия, Нидерланды
Студия: Menuet Producties, Topkapi Films
Жанр: Драма, мелодрама, музыка
Год выпуска: 2012
Продолжительность: 01:51:36-Перевод : Профессиональный (двухголосый, закадровый) R5
Оригинальная аудиодорожка: нидерландская
Cубтитры: русские, английские
Режиссер: Феликс Ван Гроенгинен / Felix Van Groeningen
В ролях: Йохан Хелденберг, Верле Батенс, Нелл Каттриссе, Герт Ван Рампелберг, Нилс Де Кастер, Робби Клейрен, Берт Хейсентрейт, Ян Бейвут, Софи Сенте, Рут Бекманс
Описание: Дидье играет в группе на банджо, живет в трейлере в бельгийской деревне и боготворит Америку как «землю свободы». Элис — владеет тату-салоном. Однажды они влюбляются с первого взгляда.-
Сэмпл: скачать-Релиз от -
Автор рипа: Elheym
Качество: BDRip (источник: / Blu-ray DUT [BROKEN_CIRCLE_BLUEBIRD] / 1080p)
Контейнер: AVI
Видео: 720x304 (2.37:1), 24 fps, XviD build 65 ~2023 kbps avg, 0.39 bit/pixel
Аудио #1: Русский: AC3, 5.1, 48 kHz, ~384 Кбит/с | Профессиональный (двухголосый, закадровый) R5 |
Аудио #2: Нидерландский: AC3, 5.1, 48 kHz, ~384 Кбит/с | Оригинал |
Субтитры: русские (полные, форсированные [на песни]), английские (полные)
Размер: 2234.00 Mb (1/2 DVD)

MediaInfo

Полное имя : Razomknutyj.krug.2012.DUAL.BDRip.XviD.AC3.-HQCLUB.avi
Формат : AVI
Формат/Информация : Audio Video Interleave
Профиль формата : OpenDML
Размер файла : 2,18 Гбайт
Продолжительность : 1 ч. 51 м.
Общий поток : 2799 Кбит/сек
Название фильма : Разомкнутый круг / The Broken Circle Breakdown (2012) BDRip
Режиссёр : Elheym
Программа кодирования : VirtualDubMod 1.5.10.2 (build 2540/release)
Правообладатель : HQCLUB
Примечание : 15.04.2015
Видео
Идентификатор : 0
Формат : MPEG-4 Visual
Профиль формата : Advanced Simple@L5
Параметр BVOP формата : 1
Параметр QPel формата : Нет
Параметр GMC формата : Без точки перехода
Параметр матрицы формата : Выборочная
Идентификатор кодека : XVID
Идентификатор кодека/Подсказка : XviD
Продолжительность : 1 ч. 51 м.
Битрейт : 2013 Кбит/сек
Ширина : 720 пикселей
Высота : 304 пикселя
Соотношение сторон : 2,35:1
Частота кадров : 24,000 кадра/сек
Цветовое пространство : YUV
Субдискретизация насыщенности : 4:2:0
Битовая глубина : 8 бит
Тип развёртки : Прогрессивная
Метод сжатия : С потерями
Бит/(Пиксели*Кадры) : 0.383
Размер потока : 1,57 Гбайт (72%)
Библиотека кодирования : XviD 65
Аудио #1
Идентификатор : 1
Формат : AC-3
Формат/Информация : Audio Coding 3
Расширение режима : CM (complete main)
Параметр Endianness формата : Big
Идентификатор кодека : 2000
Продолжительность : 1 ч. 51 м.
Вид битрейта : Постоянный
Битрейт : 384 Кбит/сек
Каналы : 6 каналов
Расположение каналов : Front: L C R, Side: L R, LFE
Частота : 48,0 КГц
Битовая глубина : 16 бит
Метод сжатия : С потерями
Размер потока : 306 Мбайт (14%)
Выравнивание : Разделение по промежуткам
Продолжительность промежутка : 42 мс. (1,00 видеокадр)
Время предзагрузки промежутка : 500 мс.
Аудио #2
Идентификатор : 2
Формат : AC-3
Формат/Информация : Audio Coding 3
Расширение режима : CM (complete main)
Параметр Endianness формата : Big
Идентификатор кодека : 2000
Продолжительность : 1 ч. 51 м.
Вид битрейта : Постоянный
Битрейт : 384 Кбит/сек
Каналы : 6 каналов
Расположение каналов : Front: L C R, Side: L R, LFE
Частота : 48,0 КГц
Битовая глубина : 16 бит
Метод сжатия : С потерями
Размер потока : 307 Мбайт (14%)
Выравнивание : Разделение по промежуткам
Продолжительность промежутка : 42 мс. (1,00 видеокадр)
Время предзагрузки промежутка : 500 мс.

Скриншоты




Показать сообщения:    

Текущее время: 09-Дек 22:20

Часовой пояс: UTC + 3


Вы не можете начинать темы
Вы не можете отвечать на сообщения
Вы не можете редактировать свои сообщения
Вы не можете удалять свои сообщения
Вы не можете голосовать в опросах
Вы не можете прикреплять файлы к сообщениям
Вы не можете скачивать файлы