12:08 к востоку от Бухареста / A fost sau n-a fost? / 12:08 East of Bucharest (Корнелиу Порумбойю / Corneliu Porumboiu) [2006, Румыния, драма, комедия, DVDRip] MVO + Sub Rus + Original Rom


Статистика раздачи [Обновить пиров]
Размер:  1.47 GB   |    Зарегистрирован:  1 год 1 месяц   |    Скачан:  1 раз

Полного источника не было: 3 дня

 
   
 
 
 

[Цитировать]

12:08 к востоку от Бухареста / A fost sau n-a fost? / 12:08 East of Bucharest
Страна: Румыния
Студия: 42 Km Film
Жанр: драма, комедия,
Год выпуска: 2006
Продолжительность: 01:25:15
Перевод: Профессиональный (многоголосый закадровый)
Cубтитры: русские
Оригинальная аудиодорожка: румынский
Режиссер: Корнелиу Порумбойю / Corneliu Porumboiu
В ролях: Мирча Андрееску, Теодор Корбан, Ион Сэпдару, Мирела Чьйоабэ, Луминица Георгиу, Кристина Чиофу, Лучиан Ифтиме, Аннемарие Кертик, Петрика Сапдару, Каталин Параскив ...
Описание: 22 декабря. 16 лет прошло после революции. В небольшом городке в Румынии все уже ждут прихода Рождества. Пенсионер Пискочи готовится провести очередное Рождество в полном одиночестве. Учитель истории Манеску пытается рассчитаться со своими долгами. А Ждреску, владелец местной телевизионной станции, похоже, совсем не заинтересован в грядущих праздниках. Для него пришло время разобраться в истории. Вместе с Манеску и Пискочи он пытается найти ответ на вопрос, на который не может ответить вот уже 16 лет: «Все-таки была у них в городке революция или нет?»
Доп. информация: Рип сделан из этого DVD9. (Который на постере)-- --A fost sau n-a fost_(12'08 East of Bucharest)_(2006)_DVDRiip_Sample_.avi-
-

Награды


-
-Качество видео: DVDRip
Формат видео: AVI
Видео: 704x384 (1.83:1), 23.976 fps, XviD MPEG-4 ~1552 kbps avg, 0.24 bit/pixel
Аудио 1: 48 kHz, AC3 Dolby Digital, 3/2 (L,C,R,l,r) + LFE ch, ~448 kbps, Русский
Аудио 2: 48 kHz, AC3 Dolby Digital, 3/2 (L,C,R,l,r) + LFE ch, ~448 kbps, Румынский
Формат субтитров: softsub (SRT)

AviInfo

File: A fost sau n-a fost_(12'08 East of Bucharest)_(2006)_DVDRip_.avi
Title: A fost sau n-a fost_(12'08 East of Bucharest)_(2006)
Copyleft: Ripped_by_rjhlb777
Genre: Comedy/Drama
Category: Movie
Comment: MVO + Original ROM
FileSize: 1501.96 Mb ( 1 574 922 240 bytes )
Play length: 01:25:15.109 (122640 frames)
Subtitles: RUS_ (SubRip format)
Video: 704x384 (1.83:1), 23.976 fps, XviD MPEG-4 ~1552 kbps avg, 0.24 bit/pixel
Audio #1: 48 kHz, AC3 Dolby Digital, 3/2 (L,C,R,l,r) + LFE ch, ~448 kbps
Audio #2: 48 kHz, AC3 Dolby Digital, 3/2 (L,C,R,l,r) + LFE ch, ~448 kbps

MediaInfo

General
Complete name : C:\Temp\_RELEASES_\A fost sau n-a fost_(12'08 East of Bucharest)_(2006)_DVDRip_\A fost sau n-a fost_(12'08 East of Bucharest)_(2006)_DVDRip_.avi
Format : AVI
Format/Info : Audio Video Interleave
File size : 1.47 GiB
Duration : 1h 25mn
Overall bit rate : 2 463 Kbps
Movie name : A fost sau n-a fost_(12'08 East of Bucharest)_(2006)
Genre : Comedy/Drama
Writing application : VirtualDubMod 1.5.10.3 | www.virtualdub-fr.org || (build 2550/release)
Original source form/Name : Movie
Copyright : Ripped_by_rjhlb777
Comment : MVO + Original ROM
Video
ID : 0
Format : MPEG-4 Visual
Format profile : Advanced Simple@L5
Format settings, BVOP : 2
Format settings, QPel : No
Format settings, GMC : No warppoints
Format settings, Matrix : Default (H.263)
Codec ID : XVID
Codec ID/Hint : XviD
Duration : 1h 25mn
Bit rate : 1 553 Kbps
Width : 704 pixels
Height : 384 pixels
Display aspect ratio : 1.85:1
Frame rate : 23.976 fps
Color space : YUV
Chroma subsampling : 4:2:0
Bit depth : 8 bits
Scan type : Progressive
Compression mode : Lossy
Bits/(Pixel*Frame) : 0.240
Stream size : 947 MiB (63%)
Writing library : XviD 1.2.1 (UTC 2008-12-04)
Audio #1
ID : 1
Format : AC-3
Format/Info : Audio Coding 3
Mode extension : CM (complete main)
Format settings, Endianness : Big
Codec ID : 2000
Duration : 1h 25mn
Bit rate mode : Constant
Bit rate : 448 Kbps
Channel(s) : 6 channels
Channel positions : Front: L C R, Side: L R, LFE
Sampling rate : 48.0 KHz
Bit depth : 16 bits
Compression mode : Lossy
Stream size : 273 MiB (18%)
Alignment : Split accross interleaves
Interleave, duration : 42 ms (1.00 video frame)
Interleave, preload duratio : 500 ms
Audio #2
ID : 2
Format : AC-3
Format/Info : Audio Coding 3
Mode extension : CM (complete main)
Format settings, Endianness : Big
Codec ID : 2000
Duration : 1h 25mn
Bit rate mode : Constant
Bit rate : 448 Kbps
Channel(s) : 6 channels
Channel positions : Front: L C R, Side: L R, LFE
Sampling rate : 48.0 KHz
Bit depth : 16 bits
Compression mode : Lossy
Stream size : 273 MiB (18%)
Alignment : Split accross interleaves
Interleave, duration : 42 ms (1.00 video frame)
Interleave, preload duratio : 500 ms

Скриншот c названием фильма

[teatrix.ru].t5895.torrent 
Торрент: Зарегистрирован [ 2015-10-10 09:49 ] · E4B88905325AF979741582E39255E0A6B031FB5B

Скачать .torrent

Скачать

15 KB

Статус: проверено
Скачан: 1 раз
Размер: 1.47 GB
terms.php



Быстрый ответ

Имя:

      
Для отправки сообщений необходимо включить JavaScript
Показать сообщения:    

Текущее время: 05-Дек 01:27

Часовой пояс: UTC + 3


Вы можете начинать темы
Вы можете отвечать на сообщения
Вы не можете редактировать свои сообщения
Вы не можете удалять свои сообщения
Вы не можете голосовать в опросах
Вы не можете прикреплять файлы к сообщениям
Вы можете скачивать файлы