Феникс / Phoenix (Кристиан Петцольд / Christian Petzold) [2014, Германия, Польша, драма, история, HDRip] DVO


 

[Цитировать]

Феникс / Phoenix
Страна: Германия, Польша
Жанр: драма, история
Год выпуска: 2014
Продолжительность: 01:38:00
Перевод: Любительский (двухголосый закадровый) Студия Пиратского дубляжа
Cубтитры: нет
Оригинальная аудиодорожка: нет
Режиссер: Кристиан Петцольд / Christian Petzold
В ролях: Нина Хосс, Рональд Церфельд, Нина Кунцендорф, Михаэль Мертенс, Имоген Когге, Керстен Блок, Уве Пройсс, Ева Бэй, Джефф Баррелл, София Эксс
Описание: Нелли Ленц, жертва Холокоста, которой удалось выжить в концлагере. Она ранена, у неё сильно искалечено лицо. Сотрудница Еврейского агентства Лене Винтер помогает Нелли добраться до Берлина, где ей сделали пластическую операцию. Поправившись после операции, Нелли начинает искать своего мужа, Йоханнса. Когда она наконец нашла его, Йоханнес не узнал свою жену, которую считает погибшей. Тем не менее, он признает, что эта незнакомая ему женщина похожа на его «покойную» жену. И тогда Йоханнес делает деловое предложение Нелли — она должна будет изображать его жену, чтобы получить состояние, которое ей досталось от семьи. Нелли соглашается…

Качество видео: HDRip (Исх. BDRip 720p)
Формат видео: AVI
Видео: 688x288 (2.39:1), 24.000 fps, XviD build 73 ~926 kbps avg, 0.19 bit/pixel
Аудио: 48 kHz, MPEG Layer 3, 2 ch, ~128.00 kbps avg

MediaInfo

Общее
Полное имя : S:ФильмыФеникс. 2014. HDRip. 745 (AleksSin).avi
Формат : AVI
Формат/Информация : Audio Video Interleave
Размер файла : 745 Мбайт
Продолжительность : 1 ч. 38 м.
Общий поток : 1063 Кбит/сек
Программа кодирования : VirtualDubMod 1.5.10.3 | www.virtualdub-fr.org || (build 2550/release)
Библиотека кодирования : VirtualDubMod build 2550/release
Видео
Идентификатор : 0
Формат : MPEG-4 Visual
Профиль формата : Advanced Simple@L5
Параметр BVOP формата : 1
Параметр QPel формата : Нет
Параметр GMC формата : Без точки перехода
Параметр матрицы формата : Выборочная
Идентификатор кодека : XVID
Идентификатор кодека/Подсказка : XviD
Продолжительность : 1 ч. 38 м.
Битрейт : 926 Кбит/сек
Ширина : 688 пикс.
Высота : 288 пикс.
Соотношение сторон : 2,40:1
Частота кадров : 24,000 кадр/сек
Цветовое пространство : YUV
Подвыборка цветности : 4:2:0
Битовая глубина : 8 бит
Тип развёртки : Прогрессивная
Метод сжатия : С потерями
Бит/(Пиксели*Кадры) : 0.195
Размер потока : 649 Мбайт (87%)
Библиотека кодирования : XviD 73
Аудио
Идентификатор : 1
Формат : MPEG Audio
Версия формата : Version 1
Профиль формата : Layer 3
Идентификатор кодека : 55
Идентификатор кодека/Подсказка : MP3
Продолжительность : 1 ч. 38 м.
Вид битрейта : Постоянный
Битрейт : 128 Кбит/сек
Каналы : 2 канала
Частота : 48,0 КГц
Метод сжатия : С потерями
Размер потока : 89,7 Мбайт (12%)
Выравнивание : Соединение по промежуткам
Продолжительность промежутка : 42 мс. (1,00 видеокадр)
Время предзагрузки промежутка : 504 ms
Библиотека кодирования : LAME3.99r
Настройки программы : -m s -V 4 -q 2 -lowpass 17 -b 128

Скриншот c названием фильма

Скриншоты




Показать сообщения:    

Текущее время: 07-Дек 13:38

Часовой пояс: UTC + 3


Вы не можете начинать темы
Вы не можете отвечать на сообщения
Вы не можете редактировать свои сообщения
Вы не можете удалять свои сообщения
Вы не можете голосовать в опросах
Вы не можете прикреплять файлы к сообщениям
Вы не можете скачивать файлы