Вне закона / Down by Law (Джим Джармуш / Jim Jarmusch) [1986, США, Германия (ФРГ), драма, комедия, криминал, BDRip-AVC] MVO (R5) + AVO (Дольский) + Sub Rus, Eng + Original Eng


 

[Цитировать]

-Вне закона / Down by Law Страна: США, Германия (ФРГ)
Жанр: драма, криминал
Год выпуска: 1986
Продолжительность: 01:46:53-Перевод: Профессиональный (многоголосый закадровый) |Кармен Видео|
Перевод: Авторский (одноголосый закадровый) |Александр Дольский|
Cубтитры: русские (полные), английские
Оригинальная аудиодорожка: английский-Режиссер: Джим Джармуш / Jim Jarmusch-В ролях-Том Уэйтс, Джон Лури, Роберто Бениньи, Николетта Браски, Эллен Баркин, Билли Нил, Рокетс Редглейр, Вернел Багнерис, Тимотея, Эл.Си. Дрейн, Джой Н. Хоук мл., Ральф Джозеф, Ричард Боэ, Дэйв Петиджин, Адам Коэн, Алан Клейнберг, Дэвид Дальгрен, Элиотт Кинер, Джей Хиллиард, Прюитт Тэйлор Винс-Описание-Действие происходит в Новом Орлеане. Диск-жокей Зэк соглашается перегнать ворованный автомобиль, чтобы заработать немного денег. Однако вместо быстрого заработка Зэк не менее быстро оказывается в тюрьме. Аналогичная неприятность происходит и с сутенером Джеком, который попадает в одну камеру с Зэком. Вскоре к ним подсаживают странного итальянца, знающего по-английски всего несколько фраз и обожающего американские фильмы. В конце концов, троица неудачников решается на побег… Сюжет этой замечательной притчи - идеальная иллюстрация почти всех картин Джармуша. Встретились, поговорили и разошлись - чтобы больше никогда не увидеться.
Один из первых фильмов Джармуша, "Вне закона" на первый взгляд довольно простоват, но за этой простотой и кроется его обаяние. Начинающийся как суровая криминальная драма или мрачный роад-муви, фильм являет и свои комедийные нотки.
-Качество видео: BDRip -Контейнер: MKV-Видео: AVC, 1024х576 (16:9), ~3500 kbps, 23.976 fps,
Аудио: AC-3, 192 kbps, Dolby Digital, 1/0 (C) ch, 48 KHz |MVO|
Аудио: AC-3, 192 kbps, Dolby Digital, 1/0 (C) ch, 48 KHz |AVO|
Аудио: AC-3, 192 kbps, Dolby Digital, 1/0 (C) ch, 48 KHz |оригинал|
Формат субтитров: softsub (SRT)--

MediaInfox264

VIDEO ENCODING
------------------------------
Encoding video to: C:\Users\CW\Desktop\2.mkv
x264 Q18.8 1024x576 23.976fps (153769 frames)
avs4x26x.exe: -L x264_64.exe --crf 18.8 --preset veryslow --profile high --level 4.1 --ref 15 --aq-mode 3 --aq-strength 0.78 --deblock -3:-3 --merange 48 --bframes 14 --subme 11 --no-mbtree --keyint 240 --colorprim bt709 --transfer bt709 --colormatrix bt709 --vbv-bufsize 50000 --vbv-maxrate 62500 --partitions p8x8,b8x8,i4x4,i8x8 --zones 149500,153769,q=35 --sar 1:1 --output "C:\Users\CW\Desktop\2.mkv" "F:\Temp\0039.avs"
raw [info]: 1024x576p 1:1 @ 24000/1001 fps (cfr)
x264 [info]: using SAR=1/1
x264 [info]: using cpu capabilities: MMX2 SSE2Fast LZCNT
x264 [info]: profile High, level 4.1
x264 [info]: frame I:711 Avg QP:19.50 size: 82148
x264 [info]: frame P:26109 Avg QP:21.07 size: 33976
x264 [info]: frame B:126949 Avg QP:22.73 size: 14919
x264 [info]: consecutive B-frames: 0.6% 0.2% 1.5% 8.3% 10.4% 57.2% 7.6% 3.1% 3.6% 2.0% 1.7% 2.1% 0.7% 0.5% 0.6%
x264 [info]: mb I I16..4: 3.9% 80.2% 15.9%
x264 [info]: mb P I16..4: 0.0% 8.1% 0.6% P16..4: 30.3% 36.5% 17.2% 0.0% 0.0% skip: 7.2%
x264 [info]: mb B I16..4: 0.0% 1.6% 0.1% B16..8: 34.9% 19.9% 5.3% direct: 7.5% skip:30.8% L0:48.9% L1:39.5% BI:11.6%
x264 [info]: 8x8 transform intra:92.2% inter:55.8%
x264 [info]: direct mvs spatial:99.6% temporal:0.4%
x264 [info]: coded y,uvDC,uvAC intra: 98.0% 0.0% 0.0% inter: 36.4% 0.0% 0.0%
x264 [info]: i16 v,h,dc,p: 40% 19% 29% 12%
x264 [info]: i8 v,h,dc,ddl,ddr,vr,hd,vl,hu: 9% 6% 12% 10% 14% 13% 12% 11% 12%
x264 [info]: i4 v,h,dc,ddl,ddr,vr,hd,vl,hu: 11% 6% 5% 8% 17% 16% 14% 11% 11%
x264 [info]: i8c dc,h,v,p: 71% 29% 0% 0%
x264 [info]: Weighted P-Frames: Y:4.2% UV:0.0%
x264 [info]: ref P L0: 31.7% 11.3% 17.5% 6.4% 6.8% 4.6% 5.1% 2.4% 2.7% 2.0% 2.3% 1.7% 2.0% 1.6% 1.9% 0.1%
x264 [info]: ref B L0: 55.8% 13.0% 7.9% 4.7% 3.7% 3.4% 2.8% 1.8% 1.5% 1.5% 1.3% 1.3% 0.8% 0.4%
x264 [info]: ref B L1: 89.9% 10.1%
x264 [info]: kb/s:3541.81
Формат : Matroska
Версия формата : Version 2
Размер файла : 3,08 Гбайт
Продолжительность : 1 ч. 46 м.
Общий поток : 4120 Кбит/сек
Название фильма : Вне закона / Down by Law__1986
Дата кодирования : UTC 2015-04-13 13:37:08
Программа кодирования : mkvmerge v7.6.0 ('Garden of Dreams') 32bit built on Feb 11 2015 00:18:47
Библиотека кодирования : libebml v1.3.1 + libmatroska v1.4.2
Видео
Идентификатор : 1
Формат : AVC
Формат/Информация : Advanced Video Codec
Профиль формата : High@L4.1
Параметр CABAC формата : Да
Параметр ReFrames формата : 15 кадров
Идентификатор кодека : V_MPEG4/ISO/AVC
Продолжительность : 1 ч. 46 м.
Битрейт : 3462 Кбит/сек
Ширина : 1024 пикселя
Высота : 576 пикселей
Соотношение сторон : 16:9
Частота кадров : 23,976 кадра/сек
Цветовое пространство : YUV
Субдискретизация насыщенности : 4:2:0
Битовая глубина : 8 бит
Тип развёртки : Прогрессивная
Бит/(Пиксели*Кадры) : 0.245
Размер потока : 2,58 Гбайт (84%)
Заголовок : Down.by.Law_BDRip_cw_RGTru
Библиотека кодирования : x264 core 144 r2525 40bb568
Настройки программы : cabac=1 / ref=15 / deblock=1:-3:-3 / analyse=0x3:0x113 / me=umh / subme=11 / psy=1 / psy_rd=1.00:0.00 / mixed_ref=1 / me_range=48 / chroma_me=1 / trellis=2 / 8x8dct=1 / cqm=0 / deadzone=21,11 / fast_pskip=1 / chroma_qp_offset=-2 / threads=4 / lookahead_threads=1 / sliced_threads=0 / nr=0 / decimate=1 / interlaced=0 / bluray_compat=0 / constrained_intra=0 / bframes=14 / b_pyramid=2 / b_adapt=2 / b_bias=0 / direct=3 / weightb=1 / open_gop=0 / weightp=2 / keyint=240 / keyint_min=23 / scenecut=40 / intra_refresh=0 / rc_lookahead=60 / rc=crf / mbtree=0 / crf=18.8 / qcomp=0.60 / qpmin=0 / qpmax=69 / qpstep=4 / vbv_maxrate=62500 / vbv_bufsize=50000 / crf_max=0.0 / nal_hrd=none / filler=0 / ip_ratio=1.40 / pb_ratio=1.30 / aq=3:0.78 / zones=149500,153769,q=35
Язык : English
Default : Да
Forced : Нет
Основные цвета : BT.709-5, BT.1361, IEC 61966-2-4, SMPTE RP177
Характеристики трансфера : BT.709-5, BT.1361
Коэффициенты матрицы : BT.709-5, BT.1361, IEC 61966-2-4 709, SMPTE RP177
Аудио #1
Идентификатор : 2
Формат : AC-3
Формат/Информация : Audio Coding 3
Расширение режима : CM (complete main)
Параметр Endianness формата : Big
Идентификатор кодека : A_AC3
Продолжительность : 1 ч. 46 м.
Вид битрейта : Постоянный
Битрейт : 192 Кбит/сек
Каналы : 1 канал
Расположение каналов : Front: C
Частота : 48,0 КГц
Битовая глубина : 16 бит
Метод сжатия : С потерями
Размер потока : 147 Мбайт (5%)
Заголовок : MVO (Кармен Видео)
Язык : Russian
Default : Да
Forced : Нет
Аудио #2
Идентификатор : 3
Формат : AC-3
Формат/Информация : Audio Coding 3
Расширение режима : CM (complete main)
Параметр Endianness формата : Big
Идентификатор кодека : A_AC3
Продолжительность : 1 ч. 46 м.
Вид битрейта : Постоянный
Битрейт : 192 Кбит/сек
Каналы : 1 канал
Расположение каналов : Front: C
Частота : 48,0 КГц
Битовая глубина : 16 бит
Метод сжатия : С потерями
Размер потока : 147 Мбайт (5%)
Заголовок : AVO (Александр Дольский)
Язык : Russian
Default : Нет
Forced : Нет
Аудио #3
Идентификатор : 4
Формат : AC-3
Формат/Информация : Audio Coding 3
Расширение режима : CM (complete main)
Параметр Endianness формата : Big
Идентификатор кодека : A_AC3
Продолжительность : 1 ч. 46 м.
Вид битрейта : Постоянный
Битрейт : 192 Кбит/сек
Каналы : 1 канал
Расположение каналов : Front: C
Частота : 48,0 КГц
Битовая глубина : 16 бит
Метод сжатия : С потерями
Размер потока : 147 Мбайт (5%)
Язык : English
Default : Нет
Forced : Нет
Текст #1
Идентификатор : 5
Формат : UTF-8
Идентификатор кодека : S_TEXT/UTF8
Идентификатор кодека/Информация : UTF-8 Plain Text
Язык : Russian
Default : Нет
Forced : Нет
Текст #2
Идентификатор : 6
Формат : UTF-8
Идентификатор кодека : S_TEXT/UTF8
Идентификатор кодека/Информация : UTF-8 Plain Text
Язык : English
Default : Нет
Forced : Нет
Меню
00:00:00.000 : en:01. Prologue [4:27]
00:04:28.726 : en:02. Titles [1:22]
00:05:51.642 : en:03. "We Can't Live in the Present Forever" [3:45]
00:09:36.867 : en:04. These Boots Are Made for Walking [2:22]
00:11:59.050 : en:05. "If You Was a Good Pimp" [3:14]
00:15:14.161 : en:06. "A Piece of Chicken" [3:27]
00:18:42.244 : en:07. Do Not Enter [1:17]
00:19:59.738 : en:08. "Someone to Take Care of You" [2:33]
00:22:33.475 : en:09. "It's a Sad & Beautiful World" [2:15]
00:24:49.611 : en:10. "I'm in a Bad Mood" [3:43]
00:28:33.501 : en:11. Lagnlappe [4:09]
00:32:43.667 : en:12. "You Don't Even Exist" [8:18]
00:41:02.540 : en:13. "Right Here on WYLD" [3:29]
00:44:32.416 : en:14. "Makin' Time Go Slower" [1:03]
00:45:36.188 : en:15. "Call Me Bob" [3:38]
00:49:14.572 : en:16. Italian Hiccups, American Cigarettes [2:11]
00:51:26.120 : en:17. "Do You Like Walt Whitman?" [0:54]
00:52:20.883 : en:18. "La Bella Finestra" [1:41]
00:54:02.192 : en:19. "We Are a Good Egg" [4:22]
00:58:24.829 : en:20. "I Scream-a, You Scream-a" [2:50]
01:01:15.582 : en:21. "Hit Was a Prison Film" [2:15]
01:03:30.967 : en:22. A Walk in the Yard [0:48]
01:05:49.563 : en:23. Mark Twain Will Save You [1:29]
01:08:14.290 : en:24. "My Family in Half an Hour?!" [2:24]
01:09:53.680 : en:25. "All I Ever Knowed" [1:39]
01:10:41.686 : en:26. Bob Frost [0:47]
01:16:03.257 : en:27. "Goin' Around in Circles" [5:21]
01:18:43.125 : en:28. Which Way Now? [2:39]
01:21:53.523 : en:29. "I Love to Catch, to Dream..." [3:10]
01:26:29.799 : en:30. Civilization [4:35]
01:28:13.027 : en:31. "It's a Mirage" [1:43]
01:31:31.558 : en:32. "Like in a Book for Children" [3:18]
01:35:35.844 : en:33. "Have to Keep Going" [4:04]
01:39:32.664 : en:34. "Wish You Were Here" [3:56]
01:41:00.460 : en:35. Two Roads Diverged in a Wood [1:27]
01:43:57.929 : en:36. End Credits [2:57]СкриншотыСравнение с исходником Рип-- БД



Показать сообщения:    

Текущее время: 05-Дек 13:33

Часовой пояс: UTC + 3


Вы не можете начинать темы
Вы не можете отвечать на сообщения
Вы не можете редактировать свои сообщения
Вы не можете удалять свои сообщения
Вы не можете голосовать в опросах
Вы не можете прикреплять файлы к сообщениям
Вы не можете скачивать файлы