Джонни взял ружье / Johnny Got His Gun (Далтон Трамбо / Dalton Trumbo) [1971, США, драма, военный, BDRip-AVC] MVO (Петербург 5-й канал) + Original (Eng) + Subs (Rus, Eng)


 

[Цитировать]

Джонни взял ружье / Johnny Got His Gun
«The most shattering experience you'll ever live»
- Страна: США
Жанр: драма, военный
Год выпуска: 1971
Продолжительность: 01:51:40-Перевод: Профессиональный (многоголосый закадровый) - Петербург 5-й канал
Оригинальная аудиодорожка: English
Cубтитры: Русские (полные), English (full)
Навигация по главам: присутствует - 12 глав-Режиссер: Далтон Трамбо / Dalton Trumbo
В ролях: Тимоти Боттомс, Кэти Филдс, Марша Хант, Джейсон Робардс, Дональд Сазерленд, Чарльз МакГроу, Сэнди Браун Уайет, Дон ’Красный’ Бэрри, Питер Брокко, Кенделл Кларк-Описание: Джо, молодой американский солдат, получил ранение снарядом миномета в последний день Первой мировой войны. Он лежит в госпитале среди таких же инвалидов. Сохранив способность мыслить, он заново переживает свою жизнь через странные мечты и воспоминания, не видя различий между сном и явью.-
Download sample-Качество видео: BDRip-AVC | исх. BD-Remux 1080p - thx: irrlicht
Формат: MKV-Видео: 1 068x644 (1.658), 24.000 fps, H.264 ~3 900 kbps avg, 0.229 bit/pixel
Аудио №1: 48 kHz, AC3 Dolby Digital, 2/0 (L,R), ~128.00 kbps | Профессиональный (многоголосый закадровый) - Петербург 5-й канал
Аудио №2: 48 kHz, AC3 Dolby Digital, 2/0 (L,R), ~192.00 kbps | English
Субтитры №1: Русские (полные) | *.srt
Субтитры №2: English (full) | *.srt-

MediaInfo

General
Unique ID : 201888364678971245507603458334685697572 (0x97E248E1D3F078A68D59F04628DC9624)
Complete name : D:\Фильмы\Рипы\Johnny Got His Gun.1971.BDRip-AVC.eFK tRuAVC.mkv
Format : Matroska
Format version : Version 4 / Version 2
File size : 3.26 GiB
Duration : 1h 51mn
Overall bit rate : 4 179 Kbps
Movie name : Джонни взял ружье / Johnny Got His Gun (1971) - Release for rutracker
Encoded date : UTC 2015-04-12 05:36:23
Writing application : mkvmerge v7.6.0 ('Garden of Dreams') 64bit built on Feb 8 2015 13:04:34
Writing library : libebml v1.3.1 + libmatroska v1.4.2
Attachements : cover.png
DURATION : 01:51:40.320000000
NUMBER_OF_FRAMES : 209385
NUMBER_OF_BYTES : 160807680
_STATISTICS_WRITING_APP : mkvmerge v7.6.0 ('Garden of Dreams') 64bit built on Feb 8 2015 13:04:34
_STATISTICS_WRITING_DATE_UT : 2015-04-12 05:36:23
_STATISTICS_TAGS : BPS DURATION NUMBER_OF_FRAMES NUMBER_OF_BYTES
Video
ID : 1
Format : AVC
Format/Info : Advanced Video Codec
Format profile : High@L4.1
Format settings, CABAC : Yes
Format settings, ReFrames : 10 frames
Codec ID : V_MPEG4/ISO/AVC
Duration : 1h 51mn
Bit rate : 3 776 Kbps
Width : 1 068 pixels
Height : 644 pixels
Display aspect ratio : 1.658
Frame rate mode : Constant
Frame rate : 24.000 fps
Color space : YUV
Chroma subsampling : 4:2:0
Bit depth : 8 bits
Scan type : Progressive
Bits/(Pixel*Frame) : 0.229
Stream size : 2.95 GiB (90%)
Title : eFK tRuAVC
Writing library : x264 core 146 r2538kMod 121396c
Encoding settings : cabac=1 / ref=10 / deblock=1:-2:-2 / analyse=0x3:0x133 / me=umh / subme=11 / psy=1 / fade_compensate=0.00 / psy_rd=1.10:0.00 / mixed_ref=1 / me_range=32 / chroma_me=1 / trellis=2 / 8x8dct=1 / cqm=0 / deadzone=21,11 / fast_pskip=0 / chroma_qp_offset=-2 / threads=12 / lookahead_threads=3 / sliced_threads=0 / nr=0 / decimate=1 / interlaced=0 / bluray_compat=0 / constrained_intra=0 / fgo=0 / bframes=16 / b_pyramid=2 / b_adapt=2 / b_bias=0 / direct=3 / weightb=1 / open_gop=0 / weightp=2 / keyint=250 / keyint_min=24 / scenecut=40 / intra_refresh=0 / rc_lookahead=60 / rc=crf / mbtree=0 / crf=18.5000 / qcomp=0.60 / qpmin=0 / qpmax=69 / qpstep=4 / vbv_maxrate=50000 / vbv_bufsize=62500 / crf_max=0.0 / nal_hrd=none / filler=0 / ip_ratio=1.40 / pb_ratio=1.30 / aq=3:0.80
Language : English
Default : Yes
Forced : No
Color primaries : BT.709
Transfer characteristics : BT.709
Matrix coefficients : BT.709
Color range : Limited
DURATION : 01:51:40.292000000
NUMBER_OF_FRAMES : 160807
NUMBER_OF_BYTES : 3229568833
_STATISTICS_WRITING_APP : mkvmerge v7.6.0 ('Garden of Dreams') 64bit built on Feb 8 2015 13:04:34
_STATISTICS_WRITING_DATE_UT : 2015-04-12 05:36:23
_STATISTICS_TAGS : BPS DURATION NUMBER_OF_FRAMES NUMBER_OF_BYTES
Audio #1
ID : 2
Format : AC-3
Format/Info : Audio Coding 3
Mode extension : CM (complete main)
Format settings, Endianness : Big
Codec ID : A_AC3
Duration : 1h 51mn
Bit rate mode : Constant
Bit rate : 128 Kbps
Channel(s) : 2 channels
Channel positions : Front: L R
Sampling rate : 48.0 KHz
Bit depth : 16 bits
Compression mode : Lossy
Stream size : 102 MiB (3%)
Title : MVO (Петербург 5-й канал)
Language : Russian
Default : Yes
Forced : No
Audio #2
ID : 3
Format : AC-3
Format/Info : Audio Coding 3
Mode extension : CM (complete main)
Format settings, Endianness : Big
Codec ID : A_AC3
Duration : 1h 51mn
Bit rate mode : Constant
Bit rate : 192 Kbps
Channel(s) : 2 channels
Channel positions : Front: L R
Sampling rate : 48.0 KHz
Bit depth : 16 bits
Compression mode : Lossy
Stream size : 153 MiB (5%)
Language : English
Default : No
Forced : No
Text #1
ID : 4
Format : UTF-8
Codec ID : S_TEXT/UTF8
Codec ID/Info : UTF-8 Plain Text
Title : полные
Language : Russian
Default : No
Forced : No
Text #2
ID : 5
Format : UTF-8
Codec ID : S_TEXT/UTF8
Codec ID/Info : UTF-8 Plain Text
Title : full
Language : English
Default : No
Forced : No
Menu
00:00:00.000 : :Chapter 01
00:09:43.833 : :Chapter 02
00:21:18.667 : :Chapter 03
00:30:06.542 : :Chapter 04
00:40:24.708 : :Chapter 05
00:51:23.375 : :Chapter 06
00:57:46.167 : :Chapter 07
01:08:20.500 : :Chapter 08
01:15:34.625 : :Chapter 09
01:26:57.042 : :Chapter 10
01:36:03.042 : :Chapter 11
01:44:04.875 : :Chapter 12

x264 log

x264 [info]: frame I:835 Avg QP:16.29 size: 65738
x264 [info]: frame P:27653 Avg QP:17.92 size: 35903
x264 [info]: frame B:132319 Avg QP:19.90 size: 16489
x264 [info]: consecutive B-frames: 0.8% 0.4% 1.5% 8.9% 13.8% 55.8% 4.7% 1.1% 3.7% 1.0% 2.1% 2.0% 1.6% 0.9% 1.1% 0.4% 0.4%
x264 [info]: mb I I16..4: 5.5% 83.7% 10.8%
x264 [info]: mb P I16..4: 0.3% 10.0% 1.1% P16..4: 29.2% 37.7% 16.4% 1.2% 0.0% skip: 4.2%
x264 [info]: mb B I16..4: 0.1% 1.4% 0.2% B16..8: 39.1% 22.3% 4.5% direct: 8.0% skip:24.4% L0:47.4% L1:43.5% BI: 9.0%
x264 [info]: 8x8 transform intra:86.3% inter:60.8%
x264 [info]: direct mvs spatial:99.9% temporal:0.1%
x264 [info]: coded y,uvDC,uvAC intra: 88.1% 36.2% 18.9% inter: 43.1% 10.0% 0.3%
x264 [info]: i16 v,h,dc,p: 73% 11% 5% 11%
x264 [info]: i8 v,h,dc,ddl,ddr,vr,hd,vl,hu: 12% 6% 10% 10% 14% 13% 12% 12% 12%
x264 [info]: i4 v,h,dc,ddl,ddr,vr,hd,vl,hu: 40% 4% 12% 6% 9% 9% 7% 7% 7%
x264 [info]: i8c dc,h,v,p: 34% 47% 12% 7%
x264 [info]: Weighted P-Frames: Y:13.4% UV:3.3%
x264 [info]: ref P L0: 34.0% 9.2% 17.7% 8.9% 7.7% 6.2% 5.7% 3.5% 3.4% 3.2% 0.4% 0.0%
x264 [info]: ref B L0: 61.4% 13.5% 8.5% 4.8% 3.8% 3.3% 2.8% 1.2% 0.6%
x264 [info]: ref B L1: 91.0% 9.0%
x264 [info]: kb/s:3856.03
x264 [total]: encoded 160807 frames, 7.83 fps, 3856.03 kb/s, duration 5:42:17.80

Comparison

Source

Encode
  • За озвучку спасибо Studio RAK.
  • Русские субтитры от Zhang@C были откорректированы и частично дополнены, за что спасибо irrlicht



Показать сообщения:    

Текущее время: 02-Дек 21:12

Часовой пояс: UTC + 3


Вы не можете начинать темы
Вы не можете отвечать на сообщения
Вы не можете редактировать свои сообщения
Вы не можете удалять свои сообщения
Вы не можете голосовать в опросах
Вы не можете прикреплять файлы к сообщениям
Вы не можете скачивать файлы