Моя собачья жизнь / My life as a dog / Mitt liv som hund (Лассе Халльстрём / Lasse Hallstrom) [1985, Швеция, драма, комедия, BDRip-AVC] [Criterion collection] Dub + Original Swe + Sub Rus, Eng, Swe


 

[Цитировать]

«Det kunde ha varit varre. Jag har faktiskt haft tur. Om man jamfor...»Моя собачья жизньMitt liv som hundCriterion collection #178- Страна: Швеция
Жанр: драма, комедия
Год выпуска: 1985
Продолжительность: 01:41:57-Перевод: Профессиональный (полное дублирование) Советский Дубляж
Оригинальная дорожка: Шведский
Субтитры: русские, английские, шведские
Режиссер: Лассе Халльстрём / Lasse Hallstrom
В ролях:
Антон Гланзелиус (Ingemar), Томас фон Брёмссен (morbror Gunnar), Анки Лиден (Ingemars mamma), Мелинда Киннаман (Saga), Кикки Рундгрен (moster Ulla), Леннарт Юльстрём (konstnären), Инг-Мари Карлссон (Berit), Лейф Эриксон (farbror Sandberg), Кристина Карлвинд (Fru sandberg), Ральф Карлссон (Harry), Вивека Дален (tvättande kvinna), Арнольд Альфредсон (Mannes farfar)-Описание: Одиннадцатилетний Ингмар живёт вместе с матерью, которая больна туберкулезом, и со старшим братом. Отец по делам службы находится в Африке. Чтобы избавить мать от забот и дать ей немного подлечиться, парнишку отправляют на лето к дяде в отдалённый посёлок, где всё ему чуждо и непривычно. Но именно там Ингмар знакомится с Сагой, своей ровесницей, воспринимая её искреннюю влюблённость просто как мимолетную детскую причуду.-
MPAA: PG-13 - Детям до 13 лет просмотр не желателен
-Источник: BD-Remux HDCLUB
Качество: BDRip-AVC | Сэмпл
Контейнер: MKV
Видео: AVC, 900x538 (1.673), 3697 kbps, 23,976 fps, 0,318 bpp
Аудио №1: AC3, 48.0 KHz, 192 Kbps, 2 channels (DUB, Советский Дубляж)
Аудио №2: AC3, 48.0 KHz, 192 Kbps, 1 channel (Оригинал)
Формат субтитров: softsub (SRT)
Навигация по главам: есть
-

x264 / MediaInfo

-[Information] [10.04.2015 10:39:13] x264 [info]: frame I:939   Avg QP:17.78  size: 87527
-[Information] [10.04.2015 10:39:13] x264 [info]: frame P:27783 Avg QP:20.32  size: 34573
-[Information] [10.04.2015 10:39:13] x264 [info]: frame B:117945 Avg QP:22.18  size: 15125
General
Unique ID : 210005855649406026743865913262383507483 (0x9DFDA8163A96627B8B9637FCE827281B)
Complete name : E:\moya.sobachya.zhizn.1985.bdrip-avc.mkv
Format : Matroska
Format version : Version 4 / Version 2
File size : 2.91 GiB
Duration : 1h 41mn
Overall bit rate : 4 083 Kbps
Movie name : Моя собачья жизнь / My life as a dog / Mitt liv som hund (1985) egiko'z rip // life (as it) is
Encoded by : egiko
Encoded date : UTC 2015-04-10 11:07:50
Writing application : mkvmerge v7.8.0 ('River Man') 64bit built on Mar 27 2015 16:31:37
Writing library : libebml v1.3.1 + libmatroska v1.4.2
Attachements : cover.jpg
DIRECTOR : Lasse Hallstrom
DATE_RELEASED : 1985
SUMMARY : «Det kunde ha varit varre. Jag har faktiskt haft tur. Om man jamfor...»
COMMENT : Criterion Collection
DURATION : 01:41:10.070000000
NUMBER_OF_FRAMES : 765
NUMBER_OF_BYTES : 30267
_STATISTICS_WRITING_APP : mkvmerge v7.8.0 ('River Man') 64bit built on Mar 27 2015 16:31:37
_STATISTICS_WRITING_DATE_UTC : 2015-04-10 11:07:50
_STATISTICS_TAGS : BPS DURATION NUMBER_OF_FRAMES NUMBER_OF_BYTES
Video
ID : 1
Format : AVC
Format/Info : Advanced Video Codec
Format profile : High@L4.0
Format settings, CABAC : Yes
Format settings, ReFrames : 12 frames
Codec ID : V_MPEG4/ISO/AVC
Duration : 1h 41mn
Bit rate : 3 697 Kbps
Width : 900 pixels
Height : 538 pixels
Display aspect ratio : 1.673
Frame rate mode : Constant
Frame rate : 23.976 fps
Color space : YUV
Chroma subsampling : 4:2:0
Bit depth : 8 bits
Scan type : Progressive
Bits/(Pixel*Frame) : 0.318
Stream size : 2.58 GiB (89%)
Title : Моя собачья жизнь / Mitt liv som hund (1985)
Writing library : x264 core 146 r2538kMod 121396c
Encoding settings : cabac=1 / ref=12 / deblock=1:-1:-1 / analyse=0x3:0x113 / me=umh / subme=10 / psy=1 / fade_compensate=0.00 / psy_rd=1.00:0.15 / mixed_ref=1 / me_range=32 / chroma_me=1 / trellis=2 / 8x8dct=1 / cqm=0 / deadzone=21,11 / fast_pskip=0 / chroma_qp_offset=-3 / threads=6 / lookahead_threads=1 / sliced_threads=0 / nr=0 / decimate=1 / interlaced=0 / bluray_compat=0 / constrained_intra=0 / fgo=0 / bframes=12 / b_pyramid=2 / b_adapt=2 / b_bias=0 / direct=3 / weightb=1 / open_gop=0 / weightp=2 / keyint=240 / keyint_min=23 / scenecut=40 / intra_refresh=0 / rc_lookahead=60 / rc=2pass / mbtree=0 / bitrate=3697 / ratetol=1.0 / qcomp=0.60 / qpmin=0 / qpmax=69 / qpstep=4 / cplxblur=20.0 / qblur=0.5 / vbv_maxrate=17500 / vbv_bufsize=17500 / nal_hrd=none / filler=0 / ip_ratio=1.40 / pb_ratio=1.30 / aq=1:1.00
Language : Swedish
Default : Yes
Forced : No
DURATION : 01:41:57.236000000
NUMBER_OF_FRAMES : 146667
NUMBER_OF_BYTES : 2826591771
_STATISTICS_WRITING_APP : mkvmerge v7.8.0 ('River Man') 64bit built on Mar 27 2015 16:31:37
_STATISTICS_WRITING_DATE_UTC : 2015-04-10 11:07:50
_STATISTICS_TAGS : BPS DURATION NUMBER_OF_FRAMES NUMBER_OF_BYTES
Audio #1
ID : 2
Format : AC-3
Format/Info : Audio Coding 3
Mode extension : CM (complete main)
Format settings, Endianness : Big
Codec ID : A_AC3
Duration : 1h 41mn
Bit rate mode : Constant
Bit rate : 192 Kbps
Channel(s) : 2 channels
Channel positions : Front: L R
Sampling rate : 48.0 KHz
Bit depth : 16 bits
Compression mode : Lossy
Stream size : 140 MiB (5%)
Title : DUB, Советский Дубляж
Language : Russian
Default : Yes
Forced : No
Audio #2
ID : 3
Format : AC-3
Format/Info : Audio Coding 3
Mode extension : CM (complete main)
Format settings, Endianness : Big
Codec ID : A_AC3
Duration : 1h 41mn
Bit rate mode : Constant
Bit rate : 192 Kbps
Channel(s) : 1 channel
Channel positions : Front: C
Sampling rate : 48.0 KHz
Bit depth : 16 bits
Compression mode : Lossy
Stream size : 140 MiB (5%)
Title : Оригинал
Language : Swedish
Default : No
Forced : No
Text #1
ID : 4
Format : UTF-8
Codec ID : S_TEXT/UTF8
Codec ID/Info : UTF-8 Plain Text
Language : Russian
Default : No
Forced : No
Text #2
ID : 5
Format : UTF-8
Codec ID : S_TEXT/UTF8
Codec ID/Info : UTF-8 Plain Text
Language : English
Default : No
Forced : No
Text #3
ID : 6
Format : UTF-8
Codec ID : S_TEXT/UTF8
Codec ID/Info : UTF-8 Plain Text
Language : Swedish
Default : No
Forced : No
Menu
00:00:00.000 : sv:00:00:00.000
00:07:17.270 : sv:00:07:17.270
00:12:26.162 : sv:00:12:26.162
00:14:29.410 : sv:00:14:29.410
00:20:04.077 : sv:00:20:04.077
00:23:57.435 : sv:00:23:57.435
00:26:07.983 : sv:00:26:07.983
00:30:59.732 : sv:00:30:59.732
00:32:36.287 : sv:00:32:36.287
00:36:16.132 : sv:00:36:16.132
00:39:43.047 : sv:00:39:43.047
00:45:22.719 : sv:00:45:22.719
00:50:09.673 : sv:00:50:09.673
00:55:31.244 : sv:00:55:31.244
01:00:40.303 : sv:01:00:40.303
01:08:45.454 : sv:01:08:45.454
01:14:55.824 : sv:01:14:55.824
01:17:01.408 : sv:01:17:01.408
01:22:17.515 : sv:01:22:17.515
01:27:30.787 : sv:01:27:30.787
01:33:54.962 : sv:01:33:54.962
01:39:26.293 : sv:01:39:26.293



Показать сообщения:    

Текущее время: 04-Дек 23:25

Часовой пояс: UTC + 3


Вы не можете начинать темы
Вы не можете отвечать на сообщения
Вы не можете редактировать свои сообщения
Вы не можете удалять свои сообщения
Вы не можете голосовать в опросах
Вы не можете прикреплять файлы к сообщениям
Вы не можете скачивать файлы