Ночь на Земле / Night on Earth (Джим Джармуш / Jim Jarmusch) [1991, Германия, США, Франция, Япония, Великобритания, комедия, драма, BDRip] MVO (Кармен Видео)


 

[Цитировать]

Ночь на Земле / Night on Earth
Страна: Германия, США, Франция, Япония, Великобритания
Жанр: комедия, драма
Год выпуска: 1991
Продолжительность: 02:07:57
Перевод: Профессиональный (многоголосый закадровый) - Кармен Видео
Cубтитры: нет

Режиссер: Джим Джармуш / Jim Jarmusch
В ролях: Вайнона Райдер, Джина Роулэндс, Армин Мюллер-Шталь, Джанкарло Эспозито, Рози Перес, Беатрис Даль, Исаак Де Банколе, Роберто Бениньи, Паоло Боначелли, Матти Пелонпяя, Кари Вяянянен, Паскаль Н'Зонзи, Эмиль Абоссоло Мбо, Стефан Буше
Описание: Отстранённые, словно подсмотренные из космоса пять таксистских историй, грустных и комедийных, случившихся за одну ночь в пяти мегаполисах мира. Каждая имеет свою особенную тему, свойственную месту действия. Так, что такое карьера, выясняется в сердце американской мечты Лос-Анжелесе. Встреча Старого Света с Новым происходит, конечно же, в бурлящем котле Нью-Йорка. О зрении и слепоте лучше всего знают в столице мировой красоты Париже, а вопросы жизни и смерти — в вечном городе Риме. И, наконец, тема заброшенности человека в этот мир нигде не выглядит более убедительно, чем на заснеженных просторах Хельсинки.
Качество видео: BDRip
Формат видео: AVI
Видео: 704x400 (1.76:1), 23.976 fps, XviD build 73 ~1429 kbps avg, 0.21 bit/pixel
Аудио: 48 kHz, AC3 Dolby Digital, 2/0 (L,R) ch, ~192 kbps

MediaInfo

Общее
Полное имя : H:\Night.on.Earth.1991.bdrip_[1.46]_[teko].avi
Формат : AVI
Формат/Информация : Audio Video Interleave
Размер файла : 1,46 Гбайт
Продолжительность : 2 ч. 7 м.
Общий поток : 1631 Кбит/сек
Программа кодирования : VirtualDubMod 1.5.10.3 | www.virtualdub-fr.org || (build 2550/release)
Библиотека кодирования : VirtualDubMod build 2550/release
Видео
Идентификатор : 0
Формат : MPEG-4 Visual
Профиль формата : Advanced Simple@L5
Параметр BVOP формата : 1
Параметр QPel формата : Нет
Параметр GMC формата : Без точки перехода
Параметр матрицы формата : Выборочная
Идентификатор кодека : XVID
Идентификатор кодека/Подсказка : XviD
Продолжительность : 2 ч. 7 м.
Битрейт : 1430 Кбит/сек
Ширина : 704 пикселя
Высота : 400 пикселей
Соотношение сторон : 16:9
Частота кадров : 23,976 кадра/сек
Цветовое пространство : YUV
Субдискретизация насыщенности : 4:2:0
Битовая глубина : 8 бит
Тип развёртки : Прогрессивная
Метод сжатия : С потерями
Бит/(Пиксели*Кадры) : 0.212
Размер потока : 1,28 Гбайт (88%)
Библиотека кодирования : XviD 73
Аудио
Идентификатор : 1
Формат : AC-3
Формат/Информация : Audio Coding 3
Расширение режима : CM (complete main)
Параметр Endianness формата : Big
Идентификатор кодека : 2000
Продолжительность : 2 ч. 7 м.
Вид битрейта : Постоянный
Битрейт : 192 Кбит/сек
Каналы : 2 канала
Расположение каналов : Front: L R
Частота : 48,0 КГц
Битовая глубина : 16 бит
Метод сжатия : С потерями
Размер потока : 176 Мбайт (12%)
Выравнивание : Разделение по промежуткам
Продолжительность промежутка : 42 мс. (1,00 видеокадр)
Время предзагрузки промежутка : 500 мс.



Показать сообщения:    

Текущее время: 03-Дек 12:39

Часовой пояс: UTC + 3


Вы не можете начинать темы
Вы не можете отвечать на сообщения
Вы не можете редактировать свои сообщения
Вы не можете удалять свои сообщения
Вы не можете голосовать в опросах
Вы не можете прикреплять файлы к сообщениям
Вы не можете скачивать файлы